<?xml version="1.0" encoding="UTF-8" standalone="no"?> <svg xmlns="http://www.w3.org/2000/svg" xmlns:xlink="http://www.w3.org/1999/xlink" version="1.1"><metadata> Created by FontForge 20170924 at Thu Feb 10 09:51:43 2005 By www-data Copyright 1999, ES Typography. Free for all use. </metadata><defs><font id="BikhamCyrScript"><glyph glyph-name=".notdef" d="M63 0v1254h375v-1254h-375zM125 63h250v1129h-250v-1129z"></glyph><glyph glyph-name="NULL"></glyph><glyph glyph-name="nonmarkingreturn"></glyph><glyph glyph-name="space" unicode=" "></glyph><glyph glyph-name="glyph4"></glyph><glyph glyph-name="exclam" unicode="!" d="M317 334q0 -25 -225 -260q-7 -7 -9 -7h-4q-1 1 -2 3q6 13 43 63q26 34 51 67q8 11 74 107q22 32 61 32q11 0 11 -5zM84 33q0 -14 -19.5 -28t-34.5 -14q-4 4 -4 19q0 34 41 34q17 0 17 -11z"></glyph><glyph glyph-name="quotedbl" unicode="&quot;" d="M283 332q0 -7 -47 -46.5t-53 -39.5v0q-1 1 -1 3q0 1 5 8q14 22 41 64q12 19 39 19q16 0 16 -8zM204 332q0 -7 -47 -46.5t-52 -39.5h-1v0q0 4 19 36q13 19 24.5 38.5t40.5 19.5q16 0 16 -8z"></glyph><glyph glyph-name="numbersign" unicode="#" d="M387 283q0 -9 -77 -98h51q16 0 16 -4t-16 -4h-58l-55 -67q78 0 81 -4q0 -5 -16 -5h-72l-46 -57q-49 -61 -56 -61l-2 1q-1 1 -1 3q0 11 81 114q-66 -2 -99 -2q-27 -33 -53 -67q-46 -56 -54 -56l-3 1q1 14 85 122q-65 0 -65 6q0 7 74 7l48 63q-74 0 -74 6q0 5 17 7 q12 1 36 0l30 -1q20 27 39 53q33 41 49 41q9 0 11 -5q0 -3 -70 -89q42 0 92 -2q22 30 43 59q35 44 52 44q10 0 12 -5zM274 176q-13 -1 -94 -1l-52 -64q84 0 97 -1z"></glyph><glyph glyph-name="dollar" unicode="$" d="M288 247q0 -36 -25 -36q-19 0 -19 17q0 8 8 18.5t8 14.5q0 6 -12 11l-66 -100q14 -43 14 -60q0 -37 -31.5 -65t-69.5 -28q-8 0 -15 1q-29 -49 -37 -48h-1l-2 5q16 30 27 44q-43 11 -43 45q0 40 30 40q22 0 22 -18q0 -12 -9.5 -22t-9.5 -17q0 -13 17 -18l74 113 q-8 17 -8 47q0 40 28 64.5t69 25.5q29 40 35 40h1q1 -2 1 -3q0 -7 -21 -38q35 -8 35 -33zM233 273q-26 0 -43.5 -17.5t-17.5 -43.5q0 -14 4 -25zM162 92q0 22 -8 38l-68 -101q4 -1 7 -1q27 0 48 18.5t21 45.5z"></glyph><glyph glyph-name="percent" unicode="%" d="M365 118q0 -41 -43 -82.5t-83 -41.5q-35 0 -35 32q0 38 42 77.5t80 40.5l5 -2q-6 -3 -16 -9q-23 -14 -51 -52q-30 -41 -30 -65q0 -13 15 -13q23 0 60 51q34 48 34 72q0 11 -9 16l5 2q26 0 26 -26zM378 298q0 -4 -77 -83q-44 -46 -88 -91q-48 -53 -143 -158q-8 -9 -14 -9 q-3 0 -3 3q0 8 116 139q91 101 137 151v1q-33 -20 -66 -20q-16 0 -36 6q2 -7 2 -13q0 -37 -44 -79.5t-81 -42.5q-36 0 -36 31q0 43 41 79q35 30 81 41l4 -2q-1 -1 -5 -3q-25 -11 -58 -55t-33 -69q0 -12 15 -12q23 0 59 51q34 48 34 73q0 4 -2 9l-6 6l5 2q12 0 17 -6 q16 -9 37 -9q41 0 85.5 31t50.5 31q8 0 8 -2z"></glyph><glyph glyph-name="ampersand" unicode="&amp;" d="M547 267q0 -14 -10 -28.5t-24 -14.5q-17 0 -17 19q0 4 1.5 10t1.5 9q0 15 -19 15q-31 0 -117 -76q-19 -17 -110 -106q44 -60 44 -112q0 -65 -51.5 -111t-116.5 -46q-20 0 -40 10q-24 12 -24 31q0 2 2 4q16 -33 62 -33q52 0 87.5 39t35.5 92q0 50 -26 102 q-94 -76 -155 -76q-37 0 -37 31q0 66 150 134q-6 20 -6 43q0 32 22.5 61t54.5 29q28 0 28 -31q0 -44 -73 -95q18 -35 37 -63q110 109 121 118q88 77 139 77q40 0 40 -32zM272 256q0 21 -20 21q-21 0 -35 -25.5t-14 -48.5q0 -14 5 -28q64 46 64 81zM220 81q-23 39 -33 71 q-49 -34 -64 -47q-42 -36 -42 -64q0 -19 25 -19q40 0 114 59z"></glyph><glyph glyph-name="quotesingle" unicode="'" d="M204 331q0 -8 -45 -44q-38 -30 -55 -41v3q0 4 44 72q12 19 41 19q15 0 15 -9z"></glyph><glyph glyph-name="parenleft" unicode="(" d="M491 461q-179 -60 -296 -210q-121 -155 -121 -340l-2 -3h-1q-9 6 -9 79q0 168 130 310q128 139 296 166z"></glyph><glyph glyph-name="parenright" unicode=")" d="M281 364q0 -116 -69 -226q-65 -103 -169 -169q-90 -57 -141 -57q-6 0 -9 3v1l3 1q23 5 67 28q123 66 209 194q88 133 92 269v25q-1 18 -1 25q0 6 1 8q8 -6 13 -48q4 -32 4 -54z"></glyph><glyph glyph-name="asterisk" unicode="*" d="M302 339q-17 -9 -74 -2q22 -48 22 -59q0 -3 -2 -4q-5 2 -20 23t-21 32l-38 -35q-12 -12 -30 -24l-2 1q4 15 52 69q-17 3 -33 7q-21 4 -28 12q2 5 16 5q25 0 46 -3q-21 42 -21 55q-1 1 -1 3q0 5 5 5q9 0 40 -57q57 57 68 57q2 0 2 -3q0 -11 -49 -65q68 -9 68 -17z"></glyph><glyph glyph-name="plus" unicode="+" d="M345 126q-3 -6 -67 -8q-50 -1 -76 0l-58 -68q-52 -61 -60 -61h-1q0 8 89 128h-42q-27 -1 -41 -1q-45 0 -45 7q0 17 21 16l120 -4q22 29 65 87q19 28 38 28q15 0 15 -5q0 -8 -87 -111q82 -3 113 -3q16 0 16 -5z"></glyph><glyph glyph-name="comma" unicode="," d="M78 34q0 -13 -39 -47.5t-56 -41.5q-4 -1 -13 -5q1 5 28 35q22 25 19 48q8 21 46 21q15 0 15 -10z"></glyph><glyph glyph-name="hyphen" unicode="-" d="M195 65l-2 -5l-4 3q-10 16 -40 16q-13 0 -37.5 -4.5t-37.5 -4.5q-33 0 -36 16l1 3h2q10 -5 18 -5q17 0 46 16.5t46 16.5q45 0 44 -52z"></glyph><glyph glyph-name="hyphen" unicode="‐" d="M195 65l-2 -5l-4 3q-10 16 -40 16q-13 0 -37.5 -4.5t-37.5 -4.5q-33 0 -36 16l1 3h2q10 -5 18 -5q17 0 46 16.5t46 16.5q45 0 44 -52z"></glyph><glyph glyph-name="period" unicode="." d="M76 33q0 -14 -19.5 -28t-34.5 -14q-4 4 -4 15q0 38 43 38q15 0 15 -11z"></glyph><glyph glyph-name="slash" unicode="/" d="M383 374q-12 -19 -205 -225q-62 -66 -123 -133q-29 -32 -88 -95q-3 -4 -12 -8l-3 2v2l1 4q22 28 207 240q54 63 161 189q26 30 51 30q11 0 11 -6z"></glyph><glyph glyph-name="zero" unicode="0" d="M283 217q0 -61 -79 -147q-73 -79 -140 -79q-56 0 -56 55q0 67 72 142.5t139 75.5q6 0 8 -3q-1 0 -6 -1q-15 -2 -56 -44q-117 -120 -117 -191q0 -23 23 -23q44 0 113 94q67 91 67 138q0 17 -18 27q4 2 10 2q17 0 28.5 -14t11.5 -32z"></glyph><glyph glyph-name="one" unicode="1" d="M245 261q-5 -9 -12 -17q-75 -89 -157 -205q-33 -47 -83 -47q-5 0 -5 4q0 12 85.5 112t104.5 114v1q-69 -52 -110 -52l-4 1v3q19 5 96 49q72 42 80 42q5 0 5 -5z"></glyph><glyph glyph-name="two" unicode="2" d="M264 223q0 -95 -232 -183v-1q12 4 22 4q14 0 38.5 -7.5t36.5 -7.5q27 0 50 20l28 23l2 -3q-6 -20 -43 -47t-60 -27q-17 0 -48.5 11.5t-48.5 11.5q-15 0 -29 -8q-22 -14 -25 -15l-2 6q17 17 55 36q62 31 122 76q84 65 84 109q0 26 -27 26q-34 0 -68 -25q-37 -27 -37 -60 q0 -15 10 -18q3 -1 21 -1q2 0 3 -1q0 -10 -25 -10q-29 0 -29 24q0 40 55 77q50 33 93 33q54 0 54 -43z"></glyph><glyph glyph-name="three" unicode="3" d="M269 235q0 -48 -108 -86v-1q50 0 50 -43q0 -47 -61 -83q-53 -31 -104 -31q-67 0 -67 41q0 49 51 49q24 0 24 -16q0 -14 -19 -27t-19 -24q0 -14 29 -14q39 0 79.5 40.5t40.5 80.5q0 18 -13 18q-14 0 -40 -12q-1 1 -1 2q0 5 29 19q37 17 53 30q28 23 28 51q0 19 -24 19 q-32 0 -56 -21t-24 -52l3 -4l-1 -4h-2q-12 0 -12 23q0 15 18 34q39 42 105 42q41 0 41 -31z"></glyph><glyph glyph-name="four" unicode="4" d="M326 265l-6 -9q-17 -22 -52 -66q-48 -63 -101 -138q5 -1 17 -1q37 0 37 -12q-1 -1 -1 -2l-4 -2q-9 0 -27.5 2t-28.5 2q-45 -61 -101 -128q-19 -10 -42 -10q-4 0 -6 3v1q0 12 93 134q-49 0 -78 -3q-58 -6 -52 -6q-2 0 -2 3q0 20 229 169q27 19 54 37q44 28 64 28q5 0 7 -2 zM258 221l-2 2q-127 -72 -250 -175v-1q35 5 108 5q34 44 69 87q41 51 75 82z"></glyph><glyph glyph-name="five" unicode="5" d="M320 251q0 -4 -16 -17q-23 -18 -65 -18q-31 0 -56 15q-34 -45 -74 -81h1q19 10 49 10q58 0 58 -45q0 -57 -60 -93q-52 -31 -112 -31q-64 0 -64 38q0 50 44 50q22 0 22 -22q0 -5 -14 -21t-14 -23q0 -13 26 -13q48 0 86.5 38t38.5 86q0 25 -25 25q-22 0 -43 -13t-23 -13 q-5 0 -5 5q0 4 13 15q64 52 115 123q5 7 12 7l4 -2q15 -27 69 -27q8 0 18 5.5t13 5.5q2 -1 2 -4z"></glyph><glyph glyph-name="six" unicode="6" d="M403 284q0 -6 -2 -9q-13 12 -25 24q-12 9 -35 9q-81 0 -205 -133q-86 -92 -86 -147q0 -29 25 -29q33 0 78.5 57t45.5 91q0 17 -17 17q-13 0 -27 -8q-22 -12 -25 -13l-2 2q2 12 23 22t35 10q49 0 49 -50q0 -52 -52.5 -94.5t-106.5 -42.5q-57 0 -57 54q0 96 113 188 q109 88 208 88q19 0 39 -9q24 -11 24 -27z"></glyph><glyph glyph-name="seven" unicode="7" d="M287 249q0 -4 -11 -5q-144 -134 -253 -264q-52 -16 -74 -16q-3 0 -6 1q-2 10 101 100q78 70 116 101q54 43 96 72v1q-61 -26 -119 -26q-47 0 -47 26q0 17 16 28t34 11v-1q0 -2 -3.5 -8t-3.5 -9q0 -21 58 -21q18 0 35 2q7 0 28.5 6t26.5 6q6 0 6 -4z"></glyph><glyph glyph-name="eight" unicode="8" d="M309 273q0 -35 -39 -65q-34 -26 -72 -33q3 4 15 12q57 39 57 85q0 32 -32 32q-27 0 -45 -20t-18 -48q0 -22 15.5 -63t15.5 -64q0 -47 -43.5 -82.5t-91.5 -35.5q-67 0 -67 49q0 42 37 75q31 28 76 42q6 6 19 6l4 -2q-22 -16 -45 -32q-44 -41 -44 -89q0 -34 36 -34 q33 0 55.5 26.5t22.5 60.5q0 21 -14 59.5t-14 60.5q0 41 37.5 73.5t79.5 32.5q55 0 55 -46z"></glyph><glyph glyph-name="nine" unicode="9" d="M270 205q0 -54 -56 -127.5t-132 -123.5q-88 -58 -166 -58q-19 0 -38 9q-22 11 -22 28q0 5 3 7q6 -8 13 -17q15 -15 43 -15q66 0 144 66q61 50 111 122q69 99 69 138q0 21 -23 21q-33 0 -76.5 -52t-43.5 -86q0 -22 23 -22q14 0 31.5 12.5t22.5 13.5l1 -1q0 -11 -27 -24 t-40 -13q-44 0 -44 49q0 52 50 94q49 39 102 39q55 0 55 -60z"></glyph><glyph glyph-name="colon" unicode=":" d="M125 132q0 -14 -19.5 -28t-34.5 -14q-4 4 -4 15q0 38 42 38q16 0 16 -11zM77 33q0 -14 -19.5 -28t-34.5 -14q-4 4 -4 15q0 38 42 38q16 0 16 -11z"></glyph><glyph glyph-name="semicolon" unicode=";" d="M125 132q0 -14 -19.5 -28t-34.5 -14q-4 4 -4 15q0 38 41 38q17 0 17 -11zM79 34q0 -13 -39 -47.5t-56 -41.5q-4 -1 -13 -5q1 5 28 35q22 25 19 48q8 21 46 21q15 0 15 -10z"></glyph><glyph glyph-name="less" unicode="&lt;" d="M309 229q-1 -2 -4 -4q-42 -23 -110 -51q-55 -24 -111 -47l140 -87q8 -5 8 -6q0 -6 -4 -6q-1 0 -2 1q-5 1 -81 40l-93 48q-13 7 -13 13q0 4 23 13l78 29q161 60 165 60q3 0 4 -3z"></glyph><glyph glyph-name="equal" unicode="=" d="M343 160q-7 -11 -96 -11q-23 0 -68.5 1t-68.5 1q-51 0 -25 -1q-19 1 -19 9q0 16 24 16q96 0 237 -9q16 -1 16 -6zM306 96q0 -4 -15 -5q-88 -4 -248 -4q-13 0 -13 10q0 15 23 14l237 -8q16 -1 16 -7z"></glyph><glyph glyph-name="greater" unicode="&gt;" d="M265 129q0 -4 -23 -13q-228 -88 -243 -88q-1 0 -3 1q-1 4 65 35q53 22 159 68q-36 23 -107 67q-40 22 -39 28v1q1 2 4 2q10 0 175 -88q12 -6 12 -13z"></glyph><glyph glyph-name="question" unicode="?" d="M309 294q0 -47 -58 -88q-17 -13 -97 -55q-57 -30 -64 -49q-11 -30 -19 -30q-3 0 -3 4q0 34 81 91q90 63 108 108q4 9 4 17q0 26 -31 26q-34 0 -69.5 -29t-35.5 -62q0 -11 11 -23q-2 -2 -5 -2q-24 0 -24 26q0 40 58 76q52 33 96 33q48 0 48 -43zM84 33q0 -14 -19.5 -28 t-34.5 -14q-4 4 -4 19q0 34 41 34q17 0 17 -11z"></glyph><glyph glyph-name="at" unicode="@" d="M423 186q0 -29 -20 -56q4 -9 4 -19q0 -58 -62 -93q-52 -30 -114 -30q-56 0 -95 24q-46 29 -46 82q0 77 79 127q68 43 149 43h1q41 0 70 -18q34 -21 34 -60zM315 172q0 12 -14 12q-18 0 -57 -38.5t-39 -55.5q0 -8 8 -8q17 0 59.5 37t42.5 53zM407 187q0 34 -29 53 q-26 16 -61 16q-67 0 -130 -53q-67 -56 -67 -121q0 -85 114 -85q89 0 144 64q21 25 21 49q0 6 -1 11q-11 -20 -39 -37.5t-51 -17.5q-37 0 -37 25q0 8 8 21h-1q-45 -45 -77 -45q-29 0 -29 22q0 37 47 72q44 32 82 32q27 0 23 -24h1q21 24 34 24q12 0 12 -5q0 -2 -32.5 -42.5 t-32.5 -54.5q0 -12 16 -12q34 0 59 37q3 7 12 19q-5 8 -10 19l1 1q4 0 13 -12q10 23 10 44z"></glyph><glyph glyph-name="A" unicode="A" d="M2463 916q0 -72 -98 -149q-66 -52 -162 -96q-121 -56 -279 -84q-62 -104 -125 -209q-75 -121 -143 -198q-86 -98 -185 -154q-20 -11 -32 -14v-1q32 -2 86 -2q62 0 103 23q13 7 84 63l2 -1l1 -2q-2 -5 -7 -10q-94 -100 -206 -100q-15 0 -43.5 6.5t-42.5 6.5q-6 0 -33 -4.5 t-41 -4.5q-43 0 -43 21q0 12 35 12q14 0 42.5 -2.5t42.5 -2.5q99 42 208 193q33 46 151 243q31 51 81 127q-90 -11 -145 -11q-106 -110 -213 -217q143 -37 154 -85v-1q-28 32 -169 68q-212 -212 -408 -310q-227 -115 -497 -115q-58 0 -115 9q4 -167 172 -257 q135 -71 319 -71q189 0 328 70q143 73 143 165q0 40 -22 65q-4 3 -9 11q1 1 3 1q18 0 35 -31.5t17 -52.5q0 -95 -153 -168q-149 -71 -342 -71q-198 0 -331 71q-169 90 -170 270q-146 25 -233 101q-101 87 -101 226q0 97 59 187q53 81 142 139q194 127 438 127q152 0 269 -49 q156 -66 156 -196q0 -34 -11 -69q5 0 19 1h20q131 0 238 -22q45 42 207 204q-162 4 -281 53q-167 67 -167 201q0 91 80 146q71 48 166 48q107 0 163 -51q36 -33 36 -61q0 -11 -4 -11q-9 57 -73 86q-52 24 -117 24q-90 0 -155 -46q-72 -51 -72 -138q0 -129 162 -193 q114 -45 270 -49q405 423 681 423q115 0 115 -82zM2451 916q0 37 -33 56q-26 16 -66 16q-166 0 -351 -142q-106 -81 -281 -270q67 2 144 14q95 140 185 233q139 143 241 143q44 0 38 -12l-4 -3l-30 6q-77 0 -160 -81q-48 -47 -117 -146q-58 -84 -86 -129q158 35 266 88 q254 124 254 227zM1153 363q-161 -7 -304 -52q-171 -52 -269 -145v-1q55 -11 105 -11q135 0 263 49q153 59 205 160zM1436 342q-107 23 -240 23q-13 0 -27 -1q-47 -113 -195 -178q-128 -57 -266 -57q-80 0 -142 21q-95 -93 -99 -217q54 -10 116 -10q243 0 468 122 q180 97 385 297zM1176 452q0 117 -161 169q-108 35 -255 35q-216 0 -402 -97q-225 -118 -225 -314q0 -132 99 -216q84 -71 224 -96q4 120 96 221q-134 49 -134 139q0 10 3 27q4 21 9 21q3 0 5 -1q-1 -4 -5 -23q-3 -15 -3 -22q0 -46 50 -83q38 -27 91 -43q101 101 277 158 q148 48 317 55q14 34 14 70z"></glyph><glyph glyph-name="B" unicode="B" d="M2727 795q0 -125 -126 -201q-108 -65 -243 -65q-85 0 -146 30q-78 39 -78 116q0 55 52 101q50 43 106 43q10 0 10 -4q-54 -2 -100 -44.5t-46 -94.5q0 -68 71 -106q57 -30 131 -30q128 0 226 61q114 71 114 192q0 110 -113 170q-92 49 -212 49q-271 0 -506 -173 q89 -67 89 -170q0 -91 -78 -162q-65 -59 -163 -90q57 -54 57 -127q0 -157 -184 -270q78 -47 78 -102q0 -15 -6 -16l-2 3q-11 71 -80 109q-113 -66 -226 -66q-70 0 -70 39q0 37 68 57q48 14 98 14q60 0 110 -22q70 59 112 133q49 84 49 166q0 52 -23 76q-31 -10 -75 -10 q-88 0 -88 35q0 33 55 33q56 0 114 -40q82 34 143 104q68 78 68 160q0 80 -60 136q-73 -62 -202 -214q-114 -136 -227 -273q-135 -155 -252 -249q20 -57 20 -114q0 -189 -146 -335t-335 -146q-178 0 -273 111q-92 106 -82 286q-107 32 -168 97q-68 73 -68 178 q0 165 151.5 277.5t369.5 112.5q40 0 84 -7q26 24 64 53q400 303 806 303q158 0 252 -55q238 169 527 169q131 0 229 -48q124 -62 124 -180zM1685 422v1q-35 35 -94 35q-46 0 -46 -21q0 -13 31 -21q22 -5 42 -5q28 0 67 11zM1834 846q-78 51 -239 51q-191 0 -374 -71 q-154 -60 -335 -185q-78 -54 -124 -93v-1q221 -53 221 -220q0 -37 -12 -68q131 -32 182 -125q94 87 224 241q177 210 214 250q126 137 243 221zM1548 27v1q-47 18 -95 18q-46 0 -83 -10q-55 -15 -55 -46q0 -32 55 -32q89 0 178 69zM973 332q0 82 -81 134q-63 41 -157 55 q-211 -189 -305 -400q70 -43 164 -41l22 1l1 1q32 88 122 137q82 44 183 44q19 0 37 -2q14 32 14 71zM954 250q-18 2 -38 2q-92 0 -170 -42q-88 -46 -118 -126l1 -1q101 5 186 43q101 46 139 124zM1138 119q-48 97 -171 129q-39 -93 -144 -143q-91 -44 -202 -46 q-5 -15 -5 -45q0 -4 1.5 -11.5t1.5 -10.5t-3 -5q-9 -1 -9 34q0 23 4 38q-112 1 -187 49q-46 -108 -53 -203q82 -24 190 -24q171 0 312 61q129 55 265 177zM697 526q-21 3 -58 3q-204 0 -353 -101q-154 -104 -154 -258q0 -191 226 -261q7 99 51 209q-24 18 -43 46 q-21 32 -21 59q0 5 4 6q13 -58 65 -98q88 215 283 395zM1169 -14q0 45 -15 94q-139 -109 -277 -160q-144 -52 -317 -52q-100 0 -190 24q-1 -8 -1 -33q0 -158 93 -254t251 -96q181 0 320 149q136 146 136 328z"></glyph><glyph glyph-name="C" unicode="C" d="M1358 848q0 -107 -117 -186q-105 -71 -218 -71q-95 0 -127 51q-82 -59 -199 -90q-106 -28 -217 -28q-53 0 -101 9q-181 -230 -181 -415q0 -106 57 -164t163 -58q87 0 174 46q79 41 143 111q111 121 111 224q0 55 -33.5 84.5t-88.5 29.5q-89 0 -178 -79t-89 -166 q0 -90 80 -90q53 0 86 31q1 -2 1 -4q0 -13 -36 -26q-32 -12 -49 -12q-95 0 -95 108q0 99 92 176q87 73 188 73q149 0 149 -139q0 -151 -154 -269q-144 -111 -299 -111q-124 0 -195 56q-79 63 -79 183q0 198 177 429q-79 28 -125 84q-51 60 -51 140q0 121 96 198 q89 72 213 72q64 0 122 -24q71 -31 84 -83q3 -5 3 -10t-3 -8q-3 1 -4 5q-17 55 -83 83q-52 22 -120 22q-116 0 -202 -66q-93 -72 -93 -186q0 -150 179 -207q140 167 366 287q239 127 444 127q83 0 138 -26q71 -36 71 -111zM964 738q0 13 -12 13q-20 0 -37 -22.5t-17 -43.5 q0 -14 4 -24q62 45 62 77zM1337 856q0 64 -58 95q-46 24 -116 24q-278 0 -559 -222q-129 -101 -206 -196q42 -6 86 -6q104 0 210 26q118 28 196 78q-4 9 -4 26q0 27 21.5 53.5t47.5 26.5q19 0 19 -23q0 -37 -68 -89q23 -35 87 -35q115 0 229.5 81t114.5 161z"></glyph><glyph glyph-name="D" unicode="D" d="M2439 757q0 -124 -97 -202q-90 -72 -217 -72q-67 0 -114 31q-55 36 -55 99q0 70 60 115q4 3 13 7l3 -2q-2 -4 -9 -10q-56 -49 -56 -110q0 -55 52 -83q40 -21 101 -21q116 0 207 65q101 72 101 183q0 97 -80 149q-69 44 -171 44q-260 0 -496 -205q45 -96 45 -215 q0 -146 -70 -270t-195 -204q-163 -104 -477 -104q-90 0 -207 12q-6 0 -45 6q-29 4 -46 4q-5 0 -63 -11q-62 -12 -73 -13q-131 -17 -286 -17q-247 0 -247 37q0 48 278 48q107 0 311 -21q90 -10 85 -10q4 0 39 9q135 35 242 110q119 83 281 266q236 267 402 392 q-121 234 -496 234q-165 0 -319 -57q-170 -62 -271 -174q-114 -126 -114 -271q0 -109 68 -173.5t177 -64.5q157 0 287.5 105t130.5 231q0 70 -45 112.5t-115 42.5q-94 0 -169 -64q-79 -68 -79 -160q0 -4 1.5 -9t1.5 -8t-3 -3q-9 0 -9 28q0 95 82 164q79 66 175 66 q86 0 135.5 -50.5t49.5 -135.5q0 -140 -137 -245q-128 -99 -272 -99q-126 0 -205 65q-85 70 -85 193q0 229 229 389q209 146 485 146q157 0 289 -61q148 -67 219 -193q257 189 511 189q110 0 180 -46q82 -54 82 -158zM1700 560q0 92 -31 174q-85 -75 -187 -189 q-88 -100 -175 -200q-240 -274 -584 -362v-1q150 -15 257 -15q68 0 120 6q160 18 299 106t222 224q79 131 79 257zM647 -22v1q-227 28 -354 28q-142 0 -211 -15q-51 -11 -51 -22q0 -5 17 -8q30 -6 120 -6h97q248 0 382 22z"></glyph><glyph glyph-name="E" unicode="E" d="M1238 775q0 -79 -68 -124q-58 -40 -141 -40q-55 0 -98 19q-52 24 -66 70q-43 -9 -99 -9q-83 0 -162 14q-18 -45 -18 -94q0 -22 4 -41q33 6 60 6q109 0 109 -51q0 -42 -65 -42q-102 0 -141 68q-135 -39 -240 -168q-109 -132 -109 -269q0 -99 53.5 -153.5t151.5 -54.5 q140 0 264 102q57 47 96 107q46 72 46 135q0 59 -43 94q-40 32 -101 32q-93 0 -165 -56q-78 -61 -78 -151q0 -68 71 -68q22 0 61 19v-2l-1 -4q-20 -24 -70 -24q-38 0 -62.5 25.5t-24.5 62.5q0 88 95 152q86 57 178 57q73 0 121 -40q52 -42 52 -114q0 -79 -57 -154 q-66 -88 -172 -138q-102 -48 -215 -48q-111 0 -184 55q-80 61 -80 169q0 152 132 283q118 119 276 161q-11 29 -11 58q0 50 21 95q-130 37 -211 103q-103 83 -103 200q0 107 81 174q76 63 185 63q96 0 177 -54q93 -60 93 -151q0 -15 -5 -16q-3 1 -3 5q0 79 -86 145 q-74 57 -178 57q-101 0 -171 -54q-76 -59 -76 -157q0 -110 103 -192q80 -63 205 -100q55 95 175 149q107 47 227 47q98 0 170 -31q97 -42 97 -127zM1227 774q0 81 -92 120q-67 28 -160 28q-110 0 -207 -50q-105 -54 -154 -145v-1q88 -20 188 -20q23 0 62 6v5q-1 39 28 68 t68 29q40 0 40 -32q0 -54 -124 -80q23 -70 152 -70q74 0 131 33q68 40 68 109zM989 783q0 22 -32 22q-34 0 -58.5 -27t-23.5 -61v-3q114 24 114 69zM747 526q0 40 -98 40q-26 0 -56 -6q18 -68 107 -68q47 0 47 34z"></glyph><glyph glyph-name="F" unicode="F" d="M2345 784q0 -4 -2 -7q-53 141 -501 141q-628 0 -1072 -302q118 -14 200 -61q108 -62 108 -165q0 -32 -11 -63q119 -20 192 -109q81 92 132 164l-26 1q-74 1 -121 -33q-4 -3 -12 -7l-2 3q0 4 8 11q57 50 171 50q341 491 634 491q35 0 33 -9l-2 -2q-90 0 -156 -28 q-122 -52 -248 -196q-69 -78 -193 -258q11 0 38 -3q24 -2 38 -2q64 0 90 23q6 8 17 22q33 40 52 40q18 0 18 -16q0 -6 -4 -13q-10 -16 -31 -34q-36 -29 -104 -92q-5 -5 -10 -5q-3 0 -3 2l6 8q19 25 51 74v1q-37 -30 -176 -30q-88 -116 -173 -199q51 -84 51 -190 q0 -228 -174.5 -395t-402.5 -167q-201 0 -319 113.5t-118 312.5q0 28 2 62q-201 81 -201 286q0 174 180 298q172 119 394 119q24 0 50 -2q246 178 518 261q263 80 577 80q353 0 465 -104q37 -35 37 -71zM1067 392q0 99 -125 150q-88 36 -209 42q-227 -184 -318 -377 q52 -83 233 -83q41 95 145 154q98 55 207 55q26 0 55 -4q12 30 12 63zM1051 320q-8 0 -25.5 1t-26.5 1q-103 0 -196 -52q-99 -56 -142 -145v-1q115 6 222 52q126 56 168 144zM1243 205q-68 93 -180 113q-43 -104 -174 -164q-112 -52 -239 -52q-11 -31 -11 -57q0 -7 2 -20.5 t2 -20.5q0 -3 -2 -4q-11 8 -11 44q0 29 9 58q-65 0 -126 22q-73 25 -104 71q-59 -126 -71 -267q101 -39 238 -39q366 0 667 316zM710 585h-18q-214 0 -381 -109q-176 -115 -176 -271q0 -193 191 -272q14 149 74 277q-13 21 -13 50q0 17 5 17q4 -18 15 -55q90 188 303 363z M1307 -1q0 90 -39 166q-304 -291 -691 -291q-135 0 -239 39q-1 -14 -1 -54q0 -192 116 -305t309 -113q218 0 383 170q162 169 162 388z"></glyph><glyph glyph-name="G" unicode="G" d="M1321 844q0 -54 -31 -111q-61 -114 -218 -215q-255 -165 -544 -165q-128 0 -234 43q-91 -154 -91 -274q0 -157 162 -157q46 0 115 22t102 49q35 37 94 98q128 126 173 126q17 0 17 -11q0 -13 -16 -33q-42 -53 -154 -133q-19 -11 -52 -36q-8 -7 -101 -122 q-128 -158 -244 -316q-84 -114 -178 -266q-134 -214 -134 -270q0 -10 10 -10q15 0 63 61q26 33 226.5 317t417.5 523q125 137 138 137q3 0 3 -1q0 -5 -34 -38q-53 -52 -164 -181q-113 -132 -257 -327q-122 -167 -245 -335l-72 -98q-59 -74 -83 -74q-37 0 -37 44 q0 84 200 390q178 273 414 536v1q-98 -64 -202 -64q-100 0 -157 47q-62 52 -62 150q0 120 91 273q-62 36 -99 99t-37 135q0 184 192 318q180 126 421 126q242 0 315 -139q52 10 106 10q186 0 186 -129zM1296 841q0 121 -154 121q-46 0 -109 -13q13 -36 13 -74 q0 -147 -130 -245q-120 -91 -271 -91q-56 0 -49 12q1 1 3 1q8 0 23 -2t23 -2q131 0 257 101q132 107 132 235q0 31 -11 62q-203 -49 -408.5 -203.5t-313.5 -336.5q98 -43 228 -43q170 0 349 70q183 72 302 189q116 115 116 219zM1018 960q-74 129 -303 129q-234 0 -399 -124 q-175 -132 -175 -317q0 -141 105 -212h1q122 200 332 340q202 136 439 184zM856 239q0 9 -10 9q-31 0 -183 -179v-1q47 34 106 82q87 73 87 89z"></glyph><glyph glyph-name="H" unicode="H" d="M2931 923q0 -98 -110 -162q-95 -55 -201 -55q-34 0 -71 9q-53 13 -56 36l2 2q7 -6 22 -17q27 -19 98 -19q97 0 187 53q104 62 104 153q0 50 -42 76q-34 22 -88 22q-118 0 -260 -112q-170 -134 -353 -419q-108 -168 -189 -264q-134 -157 -249 -199v-1q78 28 126 28 q59 0 61 -38q28 14 107 76h4l1 -3q-3 -10 -56 -51q-45 -35 -67 -49q-35 -22 -66 -22q27 23 27 44q0 25 -48 25q-50 0 -107 -27.5t-59 -27.5q-10 0 -10 9q0 6 68 33q77 30 181 168q131 186 262 373q158 217 307 334q166 131 319 131q62 0 103 -22q53 -27 53 -84zM2212 953 q0 -8 -10.5 -17.5t-32.5 -22.5q-26 -14 -34 -20q-25 -18 -188 -233q-64 -86 -198 -254q69 -4 127 -20q91 -26 91 -72q0 -5 -2 -10q-28 41 -102 67q-59 20 -123 25q-97 -119 -236 -229q-142 -113 -277 -177q62 -120 232 -120q50 0 83 18q3 2 9 5q1 -1 1 -2q0 -13 -43 -23 q-33 -7 -53 -7q-174 0 -249 118q-267 -125 -591 -125q-197 0 -326 59q-174 80 -174 254q0 139 152 248q185 132 466 132q128 0 229 -41q136 -55 136 -164q0 -126 -140 -191q-108 -50 -251 -50q-79 0 -148 25q-93 33 -93 98q0 17 10 39v-1q0 -4 -2 -10.5t-2 -10.5 q0 -70 88 -102q61 -22 148 -22q125 0 226 48q129 61 129 171q0 106 -123 160q-94 40 -215 40q-266 0 -430 -132q-133 -106 -133 -241q0 -161 156 -237q119 -59 298 -59q299 0 575 140q-15 35 -15 72q0 146 175 245q140 79 330 83q93 112 202 247.5t183 204.5v1 q-284 -198 -389 -255q-244 -134 -439 -134q-59 0 -98 26q-44 31 -44 87q0 11 4 11q3 -13 6 -27q9 -28 34 -45q34 -24 99 -24q111 0 245 41q105 32 218 95q73 41 203 127l129 85q20 12 55 36q90 77 112 77q10 0 10 -7zM1673 395v1q-175 -6 -302 -83q-163 -99 -163 -240 q0 -29 6 -53q247 130 459 375z"></glyph><glyph glyph-name="I" unicode="I" d="M2393 1048q0 -15 -38 -30q-27 -9 -77 -33q-82 -49 -259 -274q-118 -159 -237 -317q-197 -261 -411 -384q-240 -138 -556 -138q-193 0 -308 70q-138 6 -239 48q-144 59 -144 172q0 105 124 160q94 42 215 42q79 92 230 155q143 61 271 65q35 1 100 0q1 34 21 62 q9 12 11 12h3q-8 -16 -16.5 -32t-8.5 -43q154 -12 230 -79q132 17 276 84q107 50 253 146q120 80 241 160q79 50 145 85q23 10 66 32q24 15 48 29q31 17 52 17q8 0 8 -9zM2273 995v1q-84 -39 -201 -118l-234 -158q-143 -96 -250 -149q-140 -70 -264 -92q35 -44 35 -104 q0 -160 -193 -284.5t-480 -145.5q-41 -3 -129 -3v-1q110 -56 274 -56q244 0 463 121q205 112 362 315q87 114 175 227q103 132 183 221q147 163 259 226zM1277 501q-68 57 -202 69q8 -37 55 -56q38 -16 82 -16q45 0 65 3zM1334 376q0 58 -35 99q-35 -5 -89 -5q-56 0 -94 23 q-45 27 -51 78q-35 3 -60 3q-138 0 -275 -54q-146 -58 -230 -157q134 -6 188 -74q6 -8 14 -24l-3 -5q-1 1 -11 16q-47 70 -194 77q-68 -82 -68 -191q0 -134 115 -207q38 -2 62 -2h10q310 2 529 140q192 121 192 283zM493 -44v1q-109 76 -109 205q0 107 71 192 q-114 -2 -193 -41q-104 -51 -104 -152q0 -98 125 -155q91 -41 210 -50z"></glyph><glyph glyph-name="J" unicode="J" d="M2769 987q0 -6 -25 -12q-15 -4 -31 -7q-81 -23 -161 -74q-114 -73 -246 -245q42 -36 42 -94q0 -105 -118 -198q-103 -82 -217 -104q-217 -269 -427 -405q-261 -168 -557 -168q-205 0 -325 72q-94 -23 -205 -23q-140 0 -244 45q-138 60 -138 182q0 16 2 31 q9 67 76.5 124.5t133.5 57.5q13 0 19 -3q-2 -1 -15 -3q-78 -11 -130.5 -69t-52.5 -136q0 -116 121 -174q93 -44 223 -44q109 0 197 21q-125 81 -125 219q0 191 208 308q174 97 382 97q132 0 224 -44q121 -57 121 -175t-129 -198q-113 -70 -238 -70q-60 0 -102 23 q-95 -107 -300 -161q111 -67 300 -67q256 0 513 176q206 140 398 382q-80 8 -129 54q-52 50 -52 128q0 142 150 284q112 106 277 187q96 47 225.5 78.5t233.5 31.5q121 0 121 -27zM2756 989q-11 16 -100 16q-202 0 -412 -91q-216 -94 -341 -243q-111 -132 -111 -248 q0 -149 159 -162q28 35 155 201q95 124 160 198q-27 14 -65 14q-57 0 -99 -27q-8 -7 -24 -20q-2 2 -2 4q0 7 22 23q40 29 107 29q44 0 69 -14q247 282 482 320zM2322 565q0 42 -26 71h-1q-88 -125 -272 -372q143 35 235 151q64 81 64 150zM1472 164q0 113 -112 168 q-87 43 -212 43q-199 0 -357 -96q-186 -113 -186 -299q0 -135 114 -211q207 51 301 158q-53 37 -53 94q0 32 17.5 57.5t47.5 25.5q47 0 47 -63q0 -59 -41 -110q42 -23 100 -23q119 0 220 67q114 76 114 189zM1066 32q0 59 -34 59q-51 0 -51 -69q0 -50 48 -85h1q36 50 36 95z "></glyph><glyph glyph-name="K" unicode="K" d="M2564 964q0 -15 -5 -15q-14 81 -111 81q-83 0 -169 -98q-112 -140 -223 -279q-154 -182 -260 -215q23 -29 23 -65q0 -50 -65.5 -151t-65.5 -159q0 -51 38 -71q51 96 132 173q100 95 186 95q69 0 69 -52q0 -78 -114 -164q-106 -80 -211 -80q-28 0 -55 8q-43 -78 -46 -133 q1 -5 -4 -12q-5 5 -5 12q0 55 41 138q-83 32 -83 110q0 53 39 121q7 12 70 108q38 57 38 84q0 16 -9 33q-23 -5 -56 -5q-60 0 -60 28q0 26 45 26q48 0 85 -33q57 22 118 93q52 61 182 226q92 117 158 175q110 98 204 98q39 0 73 -19q41 -22 41 -58zM1997 943q0 -14 -34 -31 q-23 -10 -44.5 -21.5t-92.5 -115.5q-55 -82 -111 -165q-65 -96 -116 -161q-210 -271 -418 -397q-243 -148 -552 -148q-195 0 -335 82q-168 99 -168 282q0 176 178 304q187 134 428 134h14q2 117 111 201q120 93 330 93q120 0 220 -45q128 -57 128 -162q0 -15 -6 -12l-3 4 q0 102 -126 151q-93 37 -214 37q-162 0 -277 -53q-153 -70 -153 -214q140 -4 253 -49q148 -59 174 -169q278 25 530 254q80 73 86 77q64 56 91 65q71 64 100 64q7 0 7 -5zM1767 443v1q-22 26 -62 26q-35 0 -35 -14q0 -18 50 -18q29 0 47 5zM2097 206q0 47 -51 47 q-76 0 -177 -99q-80 -80 -129 -167v-1q18 -8 54 -8q96 0 196 73q107 78 107 155zM1169 487q-26 96 -172 143q-102 32 -235 36l-1 -1q27 -102 170 -147q100 -31 238 -31zM1875 866v1q-13 -5 -41 -29q-58 -53 -115 -106q-69 -63 -121 -98q-223 -151 -412 -171 q0 -159 -166 -254q-140 -81 -312 -81q-100 0 -182 34q-108 44 -108 130q0 32 10 31q1 -1 1 -2q0 -3 -1 -10t-1 -10q0 -83 95 -120q67 -27 165 -27q158 0 305 70q181 86 181 226q0 6 -1 11q-6 0 -19 -1h-20q-127 0 -231 44q-131 56 -154 162h-22q-145 0 -279 -49 q-151 -54 -235 -153q-78 -92 -78 -197q0 -173 167 -269q139 -80 326 -80q280 0 513 152q189 123 388 379q83 107 166 215q98 122 181 202z"></glyph><glyph glyph-name="L" unicode="L" d="M2334 855q0 -136 -160 -241q-145 -95 -289 -95q-75 0 -113 26q-46 -58 -145 -92q-86 -30 -172 -30q-42 0 -88 8q-237 -269 -482 -386q195 -68 324 -68q143 0 249 72q31 24 72 50q1 -1 1 -3q0 -3 -54 -49q-129 -111 -275 -111q-79 0 -177 30q-43 14 -169 63 q-217 -96 -472 -96q-91 0 -163 21q-107 32 -107 100q0 66 88 93q58 19 142 19q122 0 261 -34q94 -22 253 -77q218 114 455 390q-185 66 -185 234q0 129 129 225t307 96q159 0 234 -85q166 94 335 94q84 0 137 -35q64 -40 64 -119zM2323 853q0 75 -60 113q-50 32 -129 32 q-163 0 -322 -101q23 -36 23 -79q0 -100 -112 -166q-96 -56 -203 -56q-14 0 -19 1q-61 -78 -116 -141q38 -4 79 -4q79 0 160 23q96 28 140 76q-19 16 -19 43q0 34 25 34q23 0 23 -30q0 -21 -15 -45q30 -18 82 -18q140 0 291 88q172 99 172 230zM1825 819q0 42 -23 71 q-139 -93 -291 -280h11q105 0 196 52q107 60 107 157zM1783 597q0 24 -12 24q-17 0 -17 -21q0 -25 17 -40q12 16 12 37zM1787 911q-70 66 -224 66q-155 0 -278 -70q-147 -84 -147 -228q0 -157 191 -210q68 83 115 138q-108 27 -108 107q0 16 8 32q10 20 24 20q2 -1 3 -1 q-25 -21 -25 -50q0 -76 107 -96q165 192 334 292zM832 42q-287 115 -487 115q-213 0 -213 -95q0 -62 101 -93q72 -23 152 -23q245 0 447 96z"></glyph><glyph glyph-name="M" unicode="M" d="M3002 854q0 -114 -159 -177q-121 -48 -256 -48q-113 0 -315 35q-156 -124 -293 -277q-193 -215 -193 -335q0 -39 23 -65t62 -26q56 0 101 28q61 38 106 93q54 67 54 127q0 56 -57 56q-56 0 -119 -65q-57 -59 -57 -119q0 -13 -6 -13q-3 0 -3 19q0 64 58 126t121 62 q80 0 80 -78q0 -97 -92 -174q-88 -73 -187 -73q-55 0 -87 30t-32 84q0 220 459 613q-46 10 -70 14q-177 -146 -392 -370q-183 -198 -367 -395q-28 -30 -46 -30q-24 0 -24 27q0 41 80 161q189 284 570 644q-44 7 -67 12q-128 -116 -244 -230q-209 -206 -304 -287 q-181 -156 -344 -235q-200 -96 -403 -96q-192 0 -316 66q-157 85 -157 261q0 169 161 296q188 148 460 162q59 93 203 137q112 34 250 34q220 0 687 -94q249 223 302 223q31 0 31 -25q0 -28 -83 -116q-56 -55 -111 -110l109 -21q145 117 295 206q209 124 323 124 q87 0 110 -58q59 -4 96 -34q43 -33 43 -89zM2988 854q0 58 -47 87q-40 25 -101 25q-137 0 -298 -96q-95 -56 -257 -190q183 -28 322 -28q127 0 236 41q145 56 145 161zM2852 978q-21 40 -105 40q-111 0 -311 -118q-144 -85 -283 -198q23 -4 69 -11q162 131 292 198 q176 89 338 89zM2202 958q0 9 -10 9q-48 0 -287 -217q69 -13 67 -13q57 51 115 101q89 82 115 120zM2123 694l-107 21q-410 -396 -625 -697q-59 -83 -60 -105l3 -5q11 -3 40 28q77 86 234 257q165 176 249 259q141 141 266 242zM1877 745q-391 75 -655 75q-338 0 -455 -142 h11q154 1 268 -51q149 -68 149 -204t-161 -234q-153 -93 -338 -93q-96 0 -177 38q-103 48 -103 132q0 10 3.5 27.5t9.5 14.5l1 -3q-5 -34 -5 -30q0 -84 94 -124q69 -29 166 -29q113 0 225 37q122 40 198.5 111.5t76.5 151.5q0 125 -133 181q-94 39 -241 39q-31 0 -63 -2 q-21 -42 -21 -93q0 -84 65 -136q61 -48 147 -48q8 0 23 4.5t22 4.5l2 -1q-32 -17 -53 -17q-92 0 -153 55q-64 57 -64 147q0 45 16 82q-251 -13 -435 -149q-161 -119 -161 -270q0 -160 156 -235q118 -57 297 -57q263 0 505 137q186 105 414 328t369 353z"></glyph><glyph glyph-name="N" unicode="N" d="M3480 829q0 -68 -40 -128q-69 -103 -215 -160q-128 -50 -268 -50q-104 0 -179 39q-94 50 -94 145q0 72 63 121q59 46 133 46q30 0 30 -12q-6 0 -19.5 2t-20.5 2q-64 0 -119 -47.5t-55 -110.5q0 -87 105 -128q74 -28 178 -28q201 0 343 87q147 90 147 220q0 118 -137 174 q-99 40 -238 40q-132 0 -240 -24q-279 -62 -594 -321q-261 -214 -471 -495q-56 -196 -123 -247q-20 -15 -30 -15q-7 0 -7 8q0 27 46 111q35 62 67 108q18 80 34 220q21 183 27 224l-1 1q-234 -322 -511 -516q-334 -234 -673 -234q-191 0 -325 75q-166 92 -166 268 q0 98 55 189q50 81 137 143q185 132 428 132q150 0 269 -54q154 -70 154 -202q0 -135 -150 -232q-141 -91 -326 -91q-98 0 -183 38q-109 48 -109 134q0 10 4 23q5 19 12 15q0 -5 -3 -20.5t-3 -22.5q0 -32 32 -67q67 -74 228 -74q187 0 332 84q156 91 156 213q0 118 -160 175 q-114 41 -259 41q-219 0 -394 -100q-209 -119 -209 -322q0 -166 167 -249q130 -64 315 -64q394 0 743 276q252 199 443 465q15 105 42 153q39 70 125 90q63 72 127 72q43 0 43 -24q0 -14 -16 -20q-42 -15 -141 -33q-68 -76 -128 -192q-12 -157 -20 -227q-16 -126 -42 -223 l1 -1q261 348 658 625q337 235 655 235q146 0 246 -56q124 -69 124 -204zM2134 924q0 13 -25 13q-56 0 -115 -54v-1q41 7 120 26q20 6 20 16zM1967 866h-1q-3 0 -18 -5q-63 -22 -80 -78q-3 -11 -9 -82h1q46 95 107 165zM1737 139h-1q-24 -37 -56 -94q-41 -75 -41 -92 q0 -1 1 -1q24 1 59 81q24 55 38 106z"></glyph><glyph glyph-name="O" unicode="O" d="M1691 784q0 -226 -206 -476q-190 -230 -416 -328q-2 -8 -5 -25q-33 -143 -150 -244q-121 -104 -265 -104q-152 0 -234 92q-77 88 -77 242q0 90 30 194h-1q-105 34 -172 105q-76 80 -76 182q0 160 132 249q114 77 281 77q110 0 183 -47q143 141 322 234q205 107 380 107 q128 0 200 -64q74 -67 74 -194zM1530 794q0 59 -35 89.5t-94 30.5q-126 0 -310 -156q-138 -117 -248 -262q-59 -77 -104 -175q-51 -111 -58 -194h-1q192 20 374.5 112.5t312.5 235.5q65 71 108 148q55 97 55 171zM1665 812q0 112 -72 169q-65 50 -180 50q-173 0 -370 -107 q-169 -91 -311 -233q44 -29 44 -67q0 -4 -2 -7q-2 1 -4 5q-18 34 -49 57q-231 -240 -324 -532h1q105 -25 200 -25q21 0 43 1v14q-1 35 9 82q42 195 218 391q168 186 361 273q95 43 167 43q146 0 146 -137q0 -106 -106 -248q-86 -115 -193 -200q-258 -204 -564 -235 q0 -163 178 -163q91 0 199 53q3 22 3 38q0 14 -7 37t-7 31q1 1 3 1q12 0 19 -44q5 -34 4 -55q208 110 391 342q203 257 203 466zM703 690q-68 38 -170 38q-159 0 -270 -70q-132 -83 -132 -233q0 -98 76 -173q65 -65 167 -98h1q41 141 132 287q87 140 196 249zM1051 -28 q-99 -40 -187 -40q-201 0 -222 170q-28 -2 -55 -2q-89 0 -195 28h-1q-30 -105 -30 -193q0 -146 69 -229q75 -89 217 -89q148 0 262 106q106 100 142 249z"></glyph><glyph glyph-name="P" unicode="P" d="M2504 871q0 -124 -126 -209q-113 -77 -242 -77q-43 0 -44 13l1 2q5 0 22 -3q14 -3 21 -3q120 0 227 79q115 86 115 202q0 87 -84 135q-68 38 -163 38q-204 0 -393 -142q69 -53 69 -142q0 -145 -150 -250q-136 -96 -287 -96q-36 0 -72 11q-170 -207 -302 -320 q12 -35 12 -75q0 -185 -164 -330q-158 -141 -345 -141q-151 0 -240 86.5t-89 237.5q0 25 3 51q-149 76 -149 231q0 123 96 234q86 98 224 163q131 61 251 67q192 153 415 245q245 100 469 100q149 0 242 -59q214 140 413 140q102 0 178 -42q92 -52 92 -146zM1863 786 q0 64 -41 108q-107 -82 -222 -214q-34 -39 -195 -241q30 -10 70 -10q96 0 186 54q83 51 140 135q62 92 62 168zM1807 909q-86 58 -232 58q-207 0 -442 -101q-201 -88 -392 -234v-1q96 -4 165 -45q85 -51 85 -138q0 -99 -93 -187q123 -19 178 -111q114 107 272 305 q-52 38 -52 98q0 41 21.5 80t56.5 60q21 13 29 13q1 -1 4 -2q-25 -18 -50 -37q-49 -47 -49 -112q0 -57 47 -91q223 287 452 445zM871 255q-4 1 -21 1q-50 0 -114 -16q-86 -20 -86 -53q0 -21 38 -21q92 0 183 89zM1058 133q-49 104 -167 120q-43 -39 -96 -66 q-61 -30 -111 -30q-53 0 -53 27q0 15 22 33q59 47 223 47q87 87 87 183q0 82 -77 131q-66 42 -154 43q-172 -137 -285 -297q-134 -189 -158 -376q96 -50 229 -50q283 0 540 235zM685 621v1q-190 -13 -352 -144q-177 -142 -177 -324q0 -127 118 -198q24 185 144 369 q106 161 267 296zM1078 37q0 26 -6 54q-254 -204 -558 -204q-128 0 -226 44q-2 -23 -2 -46q0 -145 84.5 -228t229.5 -83q177 0 327.5 143t150.5 320z"></glyph><glyph glyph-name="Q" unicode="Q" d="M1526 807q0 -124 -119 -202q-26 -150 -118 -299q-83 -134 -207 -248q-190 -175 -473 -259v-1q290 -66 495 -66q270 0 343 131q17 31 18 54q3 -4 3 -11q0 -23 -11 -47q-39 -86 -153 -132q-94 -38 -204 -38q-218 0 -537 94q-134 -33 -286 -33q-288 0 -288 66q0 49 164 49 q170 0 430 -60q262 75 477 274q118 109 203 236q97 146 126 282q-48 -28 -81 -28q-6 0 -8 4q0 4 9 4q33 1 83 35q8 42 8 79q0 148 -143 148q-133 0 -303 -142q-102 -85 -178 -185q-101 -132 -101 -226q0 -85 87 -85q106 0 258 156q73 75 110 144q7 14 22.5 41.5t28.5 27.5 q19 0 19 -22q0 -79 -73 -204q-139 -236 -358 -352q-123 -65 -215 -65q-108 0 -167 53q-63 56 -63 163q0 115 64 253q115 249 360 419q254 177 520 177q258 0 258 -185zM1502 805q0 94 -74 140q-62 38 -161 38q-105 0 -203 -34q-270 -94 -499 -375q-77 -95 -134 -217 q-65 -140 -65 -243q0 -175 191 -175q162 0 356 174q176 158 247 325q29 69 29 106q0 19 -9 19q-8 0 -22 -27l-18 -36q-61 -110 -147 -185q-142 -123 -235 -123q-102 0 -102 105q0 69 49 160q78 145 232 263q170 130 319 130q157 0 157 -158q0 -33 -4 -69q93 72 93 182z M538 -209v1q-220 64 -393 64q-142 0 -142 -41q0 -53 249 -53q158 0 286 29z"></glyph><glyph glyph-name="R" unicode="R" d="M2451 871q0 -123 -126 -209q-113 -76 -243 -76q-8 0 -23 3q-20 4 -20 9q0 2 1 3h2q12 -7 40 -7q120 0 227 79q117 86 117 202q0 88 -85 135q-69 38 -164 38q-207 0 -401 -147q70 -67 70 -155q0 -57 -35 -116q-48 -81 -151 -128q-89 -42 -195 -50v-1q84 -21 84 -89 q0 -44 -37 -101q-35 -49 -70 -99q-38 -60 -38 -112q0 -73 98 -73q89 0 180 76t111 164q2 10 2 19q0 56 -57 56q-78 0 -147 -71q-64 -66 -78 -146q-3 1 -3 12q0 72 78 146t151 74q81 0 81 -74q0 -91 -118 -181q-111 -85 -205 -85q-60 0 -97 24q-43 28 -43 85q0 52 41 116 l76 104q41 56 41 90q0 46 -59 58q-48 4 -95 8q-155 -194 -308 -312q16 -43 16 -84q0 -66 -60 -103q-51 -32 -121 -32q-87 0 -189 36q-153 -44 -380 -44q-326 0 -326 101q0 53 75 79q53 19 118 19q124 0 264 -41q95 -27 252 -93q162 56 318 190q-59 92 -119 183 q-61 105 -61 208q0 181 159 310q174 141 445 141q201 0 317 -94q211 143 420 143q102 0 178 -42q92 -52 92 -146zM1806 775q0 69 -43 118q-101 -80 -210 -204q-68 -77 -186 -228q21 -3 45 -3q110 0 205.5 52.5t152.5 145.5q36 59 36 119zM1746 909q-95 91 -299 91 q-270 0 -433 -139q-143 -121 -143 -294q0 -95 54 -203q14 -28 108 -182q115 102 267 284v1q-52 19 -86 55q-38 41 -38 91q0 72 62 132t132 60q8 0 8 -4q-7 -3 -16 -5q-71 -15 -120 -61q-53 -51 -53 -120q0 -93 117 -139q225 284 440 433zM1055 54q0 39 -16 77 q-144 -109 -314 -164q91 -36 164 -36q63 0 111 29q55 35 55 94zM674 -32q-120 45 -240 89q-139 45 -250 45q-62 0 -111 -16q-70 -23 -70 -72q0 -90 330 -90q202 0 341 44z"></glyph><glyph glyph-name="S" unicode="S" d="M2257 898q0 -69 -120 -152q-81 -56 -184 -99q-23 -143 -196 -260q-132 -88 -309 -140q-353 -387 -851 -387q-184 0 -309 62q-162 80 -162 245q0 147 120 259q103 96 274 151q151 49 293 49q86 0 158 -16q72 38 171 62q-1 8 -1 15q0 36 28 72q57 73 189 113q108 32 222 32 q190 0 294 -82q174 135 298 135q85 0 85 -59zM2234 894q0 54 -66 54q-113 0 -270 -146q25 -25 42 -65t14 -73q116 52 196 117q84 68 84 113zM1944 668q1 31 -15 68t-39 58q-78 -73 -189 -216v-1q108 23 243 83v8zM1864 815q-50 38 -137 57q-74 17 -150 15h-25 q-150 -2 -277 -65q-123 -61 -123 -134q0 -7 1 -14q80 20 167 20q128 0 178 -45q8 -7 17 -22l-3 -4h-1q-1 0 -2 2q-10 18 -46 32q-49 20 -144 20q-80 0 -164 -19q13 -64 113 -92q68 -19 158 -19q92 0 200 17q127 160 238 251zM1943 643q-151 -60 -251 -81 q-105 -142 -111 -151q-65 -86 -119 -145v-1q162 50 290 137q167 112 191 241zM1619 552q-106 -17 -193 -17q-258 0 -281 120q-88 -21 -150 -50q221 -55 221 -197q0 -104 -92 -185l35 -1q112 -1 219 24q62 67 241 306zM1205 405q0 78 -86 128q-61 36 -155 52h-1 q-133 -78 -133 -185q0 -85 95 -132q66 -32 169 -42q111 77 111 179zM1366 230v1q-98 -23 -196 -23q-30 0 -59 2q-76 -61 -184 -94q-100 -31 -205 -31q-102 0 -181 38q-101 48 -101 140q0 15 10 41q11 32 22 26q-1 -4 -12 -24q-8 -15 -8 -37q0 -88 87 -128q64 -30 164 -30 q94 0 195 26q107 28 180 76q-103 12 -169 49q-90 51 -90 139q0 108 122 187q-64 9 -125 9q-273 0 -483 -133q-195 -124 -195 -292q0 -158 160 -235q123 -60 300 -60q231 0 423 91q179 86 345 262z"></glyph><glyph glyph-name="T" unicode="T" d="M2457 784q0 -3 -3 -7q-52 139 -467 139q-424 0 -750 -121q-382 -141 -608 -440q-90 -119 -136 -236q99 -9 244 -37q43 109 153 179.5t230 70.5q161 0 251 -115q50 55 114 141q53 74 107 147q295 392 562 392q32 0 34 -8l-2 -2q-43 0 -55 -1q-135 -11 -281 -152 q-94 -91 -209 -255q-126 -181 -245 -295q57 -95 51 -213q103 15 197 80q17 14 50 39l16 8q1 -1 1 -2q0 -3 -10 -12q-125 -118 -256 -143q-23 -214 -190 -363t-382 -149q-201 0 -320 113t-119 313v35q-107 8 -184 31q-127 37 -127 104q0 57 99 83q65 17 143 17q88 0 114 -6 q117 299 408 511q261 189 603 270q244 58 506 58q317 0 423 -103q38 -37 38 -71zM1420 -3q0 102 -38 174q-118 -110 -260 -176v-1q145 -27 272 -27h12q9 1 13 1q1 15 1 29zM1361 204v1q-83 116 -241 116q-115 0 -215 -71q-93 -65 -149 -172q111 -25 332 -77q147 73 273 203z M1051 -18v1q-200 51 -301 79q-35 -76 -39 -158q192 15 340 78zM1418 -62q-40 -3 -53 -3q-127 0 -283 38q-159 -66 -371 -84q4 -106 53 -143q6 -4 18 -13l-2 -1q-38 3 -61 63q-16 42 -20 94q-56 -4 -118 -4q-70 0 -132 4v-31q0 -194 115.5 -306.5t310.5 -112.5q205 0 362 147 t181 352zM729 67q-146 31 -240 40q-34 -98 -41 -205q62 -4 134 -4q60 0 116 4v9q-1 75 31 156zM475 108q-17 5 -133 5q-67 0 -122 -16q-82 -23 -82 -73q0 -58 124 -93q75 -21 175 -29q4 94 38 206z"></glyph><glyph glyph-name="U" unicode="U" d="M1845 1023q0 -12 -10 -24q-18 -22 -61 -58l-66 -54q-95 -82 -371 -354q-347 -342 -347 -474q0 -87 98 -95q52 244 246 368q73 47 133 47q72 0 72 -64q0 -63 -51 -137q-41 -59 -101 -109q-139 -115 -289 -115q-8 -45 -8 -77q0 -34 5 -49l-1 -3q-13 -3 -13 64q0 28 5 65 q-61 2 -97 31q-39 33 -39 92q0 99 132 260q78 96 241 253q194 188 364 328q34 28 103 82q28 20 28 28q0 5 -9 5q-51 0 -298 -217q-188 -166 -291 -272q-124 -127 -357 -384q-87 -96 -160 -146q-85 -58 -150 -58q-71 0 -71 72q0 85 109 217q90 110 224 251q61 63 175 194 q67 85 67 145q0 66 -62 101q-52 30 -122 30q-208 0 -403 -116q-128 -76 -214 -178q-108 -126 -108 -249q0 -72 42 -112.5t114 -40.5q89 0 187 62q78 49 143 125q80 93 80 166q0 46 -29.5 72.5t-75.5 26.5q-31 0 -59.5 -14t-34.5 -14q-1 15 41 27q34 10 55 10 q50 0 82.5 -29.5t32.5 -78.5q0 -127 -139 -247q-135 -116 -285 -116q-75 0 -121 45.5t-46 121.5q0 96 64 199q56 89 141 158q240 193 525 193q92 0 154 -30q81 -39 81 -121q0 -73 -67 -164q-31 -42 -179 -197q-159 -167 -228 -253q-113 -139 -113 -201q0 -43 44 -43 q93 0 253 153q48 47 217 235q190 212 448 442q275 245 345 245q25 0 25 -20zM1528 315q0 56 -64 56q-25 0 -58 -13q-106 -42 -197 -162q-86 -114 -109 -232q103 0 219 76q107 71 168 166q41 64 41 109z"></glyph><glyph glyph-name="V" unicode="V" d="M2770 844q0 -140 -110 -248q-95 -92 -252 -145q-141 -48 -276 -48q-140 0 -239 42q-135 57 -135 178q0 117 133 208q141 96 327 96q259 0 299 -150q4 -15 4 -23q0 -5 -4 -7q-34 155 -282 155q-185 0 -329 -89q-137 -85 -137 -193q0 -107 125 -157q90 -36 217 -36 q129 0 270 42q163 49 262 133q117 101 117 233q0 145 -154 207q-106 43 -277 43q-152 0 -326 -54q-161 -51 -303 -135q-378 -224 -742 -583q-114 -115 -345 -344q-38 -36 -59 -36q-29 0 -29 36q0 120 229 414q104 133 340 358v1q-351 -302 -657 -302q-132 0 -217 49 q-106 61 -106 183q0 160 195 266q165 90 339 90q101 0 175 -31q101 -42 101 -129q0 -30 -16 -61q-46 -91 -178 -149q-117 -51 -231 -51q-156 0 -156 101q0 74 105 124q87 41 170 41q60 0 95 -17q31 -15 31 -20v-6q-1 0 -7 6q-22 21 -88 21q-146 0 -240 -69q-55 -41 -55 -83 q0 -44 46 -65q34 -16 85 -16q91 0 187 32q100 33 166 89q75 63 75 126q0 74 -92 109q-65 25 -154 25q-72 0 -146 -15q-142 -29 -254 -104q-142 -96 -142 -218q0 -109 102 -161q79 -41 199 -41q368 0 733 349q173 165 208 165q10 0 10 -8q0 -18 -81 -81q-51 -38 -101 -76 q-15 -13 -106 -113q-125 -137 -228 -269q-318 -408 -318 -472q0 -19 13 -19q16 0 48 32q22 22 203 220q354 387 688 619q461 321 848 321q174 0 284 -57q143 -75 143 -233z"></glyph><glyph glyph-name="W" unicode="W" d="M3090 841q0 -138 -110 -245q-95 -92 -253 -145q-141 -48 -275 -48q-142 0 -240 42q-134 57 -134 180q0 116 132 206q141 96 328 96q105 0 178 -28q99 -38 121 -122q3 -12 3 -16q0 -10 -3 -14q-34 155 -282 155q-148 0 -291 -69q-176 -83 -176 -215q0 -106 128 -156 q91 -36 217 -36q128 0 269 44q163 49 261 133q117 101 117 232q0 145 -153 207q-107 43 -277 43q-153 0 -336 -60q-173 -57 -311 -145q-195 -125 -373 -273q-146 -122 -340 -312q-152 -149 -284 -291q-16 -17 -50 -49q-29 -23 -45 -23q-28 0 -28 35q0 32 33 101 q137 286 448 616v1q-79 -60 -248 -223q-94 -91 -222 -232q-108 -120 -215 -239q-54 -59 -84 -59q-28 0 -28 38q0 65 86 206q124 204 398 489q133 138 223 217v1q-187 -58 -373 -116q-242 -77 -390 -156q-201 -107 -302 -247q-70 -97 -70 -187q0 -85 65 -135q59 -47 146 -47 q37 0 65 7l20 5q12 3 11 4l3 -1q1 -3 -10 -9q-39 -21 -106 -21q-93 0 -151.5 62t-58.5 155q0 31 8 65q42 182 271 318q164 99 464 191q210 63 419 126q93 84 129 84q12 0 12 -9q0 -24 -125 -81q-228 -240 -397 -458q-320 -414 -320 -476q0 -14 14 -14q10 0 25 10 q27 19 60 58q26 32 53 65q73 86 175 198q173 189 484 454q46 40 93 81q82 69 96 69q2 0 4 -1l2 -3q-3 -5 -29 -34q-54 -60 -161 -185q-111 -128 -278 -352q-220 -293 -220 -348q0 -13 13 -13q17 0 85 73q312 334 465 480q269 256 520 417q149 96 317 155q188 67 344 67 q175 0 292 -59q152 -76 152 -234z"></glyph><glyph glyph-name="X" unicode="X" d="M3123 844q0 -79 -45 -152q-77 -124 -245 -195q-148 -62 -311 -62q-129 0 -216 37q-120 52 -120 163q0 131 150 220q130 77 271 77q127 0 204 -57q52 -38 52 -74q0 -15 -6 -22q-3 13 -10 39q-15 46 -92 72q-60 21 -120 21q-20 0 -42 -2q-132 -11 -250 -80 q-145 -83 -145 -199q0 -98 109 -142q78 -32 192 -32q127 0 246 34q131 37 223 106q144 108 144 246q0 247 -412 247q-310 0 -615 -205q-255 -172 -472 -459q-166 -220 -166 -352q0 -117 108 -117q81 0 173 90.5t92 170.5q0 52 -60 52q-62 0 -116 -61q-49 -57 -59 -121 q-1 -7 -4 -20q-5 0 -5 8q0 73 54.5 138.5t125.5 65.5q81 0 81 -73q0 -90 -93.5 -176t-184.5 -86q-137 0 -137 137q0 145 171 371q374 493 821 623q152 44 287 44q168 0 277 -54q145 -71 145 -221zM1765 885q0 -107 -102 -279t-249 -319q-153 -151 -323 -242 q-259 -138 -544 -138q-171 0 -284 64q-139 80 -139 239q0 173 172 292q168 116 380 120h28q133 3 237 -47q132 -64 132 -184q0 -134 -151 -216q-126 -68 -273 -68q-89 0 -165 34q-96 43 -96 122q0 12 4 29q5 22 13 22l4 -1q1 -1 1 -2l-6 -15.5t-6 -25.5q0 -74 85 -112 q64 -28 148 -28q165 0 298.5 77t133.5 184q0 106 -130 157q-94 38 -220 38q-232 0 -405 -109.5t-173 -264.5q0 -151 136 -227q110 -63 273 -63q280 0 566 186q251 162 438 415q179 242 179 390q0 62 -37 94t-101 32q-138 0 -275.5 -143t-137.5 -282q0 -50 29 -77q1 -1 9 -5 t8 -5q0 -3 -9 -3q-24 0 -38 39q-11 30 -11 59q0 159 130 293.5t288 134.5q84 0 132 -40q51 -43 51 -125z"></glyph><glyph glyph-name="Y" unicode="Y" d="M2376 1024q0 -14 -40 -44q-44 -33 -103 -78q-346 -265 -783 -795q-381 -463 -588 -806q-108 -178 -108 -223q0 -15 10 -15q16 0 62 60q17 21 226 318q101 143 246 320q157 192 257 292q48 48 54 48q3 0 3 -1q0 -4 -35 -38q-47 -45 -99 -105q-205 -235 -567 -738 q-124 -172 -154 -172q-38 0 -38 42q0 62 100 229q186 310 437 625q273 341 446 527q262 280 513 461l74 48q59 38 59 47q0 4 -14 4q-25 0 -82 -34q-149 -88 -408 -328q-86 -80 -196 -193q-252 -260 -290 -297q-233 -222 -311 -222q-34 0 -52 22t-18 57q0 93 163 280 q151 164 303 328q163 188 163 285q0 61 -67 89q-49 21 -119 21q-180 0 -369 -103q-176 -97 -296 -246v-1q202 105 375 105q67 0 110 -25q53 -31 53 -93q0 -60 -49 -129q-69 -98 -182 -156t-234 -58q-75 0 -122 36q-51 40 -51 113q0 77 58 168v1q-152 -97 -274 -223 q-151 -156 -185 -291q92 67 167 67q98 0 98 -83q0 -70 -50.5 -118.5t-120.5 -48.5q-53 0 -85 34t-32 87q0 5 1 15t1 15q-78 -73 -129 -159q-60 -103 -60 -193q0 -93 64 -119q17 -7 33 -3l2 -1q4 -8 -28 -8q-44 0 -71 44q-24 38 -24 85q0 101 68 208q57 89 148 166 q31 160 191 323q128 131 304 232q53 75 171 170q109 89 244 143q144 59 274 59q87 0 147 -27q79 -37 79 -113q0 -123 -193 -332l-179 -194q-119 -129 -158 -176q-110 -137 -110 -197q0 -43 43 -43q69 0 279 199q26 25 246 250q164 168 260 257q211 196 375 305q94 62 139 62 q28 0 28 -18zM1278 676q0 57 -50 85q-39 23 -101 23q-176 0 -393 -124q-68 -98 -68 -180q0 -68 49 -105q44 -33 114 -33q92 0 200 58q85 46 157 115q92 89 92 161zM504 120q0 73 -82 73q-81 0 -173 -77q-4 -22 -4 -43q0 -47 27 -78t73 -31q59 0 109 48.5t50 107.5z"></glyph><glyph glyph-name="Z" unicode="Z" d="M1954 943q0 -61 -123 -103q-103 -36 -201 -36q-22 0 -35 3q-153 -119 -401 -350q85 -8 136 -8q14 0 14 -6q-77 -8 -184 -21q-262 -226 -411 -320q67 -26 239 -113q106 132 255 210q156 82 318 82q89 0 148 -35q71 -43 71 -126q0 -135 -169 -207q-128 -54 -285 -54 q-192 0 -363 78q-66 -96 -66 -170l-2 -2q-5 4 -5 20q0 61 64 158q-83 45 -252 131q-234 -133 -459 -133q-44 0 -78 14q-44 19 -44 57q0 29 31 58q47 43 145 66q79 18 161 18q145 0 270 -44q154 94 402 309h-13q-76 -1 -76 21q0 25 52 25q4 0 76 -6q99 90 198 179 q114 102 205 170q-127 13 -270 94q-93 52 -147 71q-75 27 -161 27q-135 0 -237 -53q-127 -67 -127 -190q0 -79 72 -124q62 -39 146 -39q90 0 166 34q97 44 97 123q0 37 -26.5 59t-64.5 22q-63 0 -100 -33q-7 -8 -21 -23q-1 3 -1 5q0 5 14 22q35 43 109 43q48 0 81 -22 q38 -25 38 -70q0 -84 -110 -132q-86 -38 -183 -38q-90 0 -154 39q-76 47 -76 131q0 136 144 210q116 60 265 60q167 0 323 -86q58 -33 115 -67q68 -37 123 -49q202 153 316 153q51 0 51 -32zM1934 935q0 24 -32 24q-108 0 -292 -140q4 0 12 -1h13q107 0 203 38.5t96 78.5z M1769 120q0 72 -69 106q-52 25 -133 25q-163 0 -314.5 -71.5t-253.5 -196.5q194 -100 378 -100q140 0 250 50q142 64 142 187zM683 82q-117 54 -230 54q-126 0 -216 -34q-103 -39 -103 -90q0 -60 116 -60q205 0 433 130z"></glyph><glyph glyph-name="bracketleft" unicode="[" d="M485 463l-4 -7q-41 -3 -48 -4q-36 -4 -44 -13q-16 -21 -47 -62l-98 -128q-70 -91 -194 -242q-56 -68 -56 -75v0q3 -5 37 -9q29 -4 41 -4l-5 -6h-111q139 189 209 280q119 154 222 270h98z"></glyph><glyph glyph-name="backslash" unicode="\" d="M143 -78q0 -8 -5 -8q-4 0 -7 13l-74 324q-23 102 -23 100q0 9 5.5 21t12.5 12t14 -34q14 -66 34 -180l42 -237q1 -6 1 -11z"></glyph><glyph glyph-name="bracketright" unicode="]" d="M398 463q-24 -40 -134 -185q-133 -175 -297 -365h-98l5 7q39 2 84 11q20 18 53 64l48 66q147 194 246 309q56 65 56 73q0 6 -35 10q-27 4 -43 4l4 6h111z"></glyph><glyph glyph-name="asciicircum" unicode="^" d="M291 136q-1 0 -3 -1q-15 0 -91 76q-22 -15 -81 -47q-62 -33 -72 -33q-1 0 -2 1q4 5 84 62.5t82 57.5q3 0 5 -3q17 -22 78 -113z"></glyph><glyph glyph-name="underscore" unicode="_" d="M445 -135h-509v30h509v-30z"></glyph><glyph glyph-name="grave" unicode="`" d="M246 201l-1 -4q-13 2 -47 36.5t-34 49.5q0 19 18 19q5 0 7 -3q6 -7 26 -47q11 -17 31 -51z"></glyph><glyph glyph-name="a" unicode="a" d="M302 99q0 -10 -69 -65q-50 -40 -86 -40q-29 0 -29 24q0 18 14 33h-1q-63 -57 -113 -57q-38 0 -38 33q0 29 28 61h-1q-15 -16 -19 -16q-2 0 -3 1v2l1 4q25 30 83.5 61.5t93.5 31.5t35 -26q0 -6 -2 -13h1q34 38 62 38q13 0 13 -3t-51 -64.5t-51 -81.5l2 -5q3 -1 7 -1 q21 0 69.5 41.5t52.5 42.5zM189 143q0 18 -19 18q-26 0 -86.5 -58t-60.5 -82q0 -12 13 -12q29 0 91 54t62 80z"></glyph><glyph glyph-name="b" unicode="b" d="M534 542q0 -67 -309 -301q-41 -29 -101 -83q-19 -24 -58 -80l2 -3q102 97 162 97q42 0 42 -31q0 -49 -63 -99q-59 -47 -110 -47q-30 0 -30 20q0 19 52 39l70 22q35 35 35 69q0 11 -13 11q-50 0 -198 -146q-15 -14 -36 -14q-11 0 -11 7q0 23 74 115h-1q-37 -37 -45 -37 q-1 0 -2 1q1 7 31 33l38 33q19 25 57 73q92 113 180 203q144 145 202 145q32 0 32 -27zM508 539q0 19 -17 19q-41 0 -186 -168q-104 -121 -165 -206v-1q102 85 204 171q164 144 164 185zM183 65v1l-54 -20q-41 -17 -41 -28q0 -9 9 -9q41 0 86 56z"></glyph><glyph glyph-name="c" unicode="c" d="M221 92q0 -13 -64 -57t-118 -44q-53 0 -53 36q0 31 29 67h-1q-9 -10 -29 -21v2q0 2 1 4q23 28 82 60t92 32q35 0 35 -28q0 -15 -10.5 -29.5t-24.5 -14.5t-14 14q0 6 8 20t8 21t-10 7q-25 0 -70 -53.5t-45 -81.5q0 -19 23 -19q41 0 100.5 43l59.5 43h1v-1z"></glyph><glyph glyph-name="d" unicode="d" d="M496 432q-160 -160 -288 -343q-40 -57 -40 -65q0 -9 11 -9q16 0 61 37q52 43 61 48l1 -2q-13 -26 -70.5 -65t-85.5 -39t-28 24q0 18 14 33h-1q-63 -57 -114 -57q-37 0 -37 33q0 29 28 61h-1q-15 -16 -20 -16q-1 0 -2 1v2q0 2 1 4q26 30 83.5 61.5t94.5 31.5q41 0 34 -32 h1q233 299 282 299q14 0 15 -7zM188 143q0 18 -18 18q-26 0 -87 -57.5t-61 -82.5q0 -12 14 -12q29 0 90.5 54t61.5 80z"></glyph><glyph glyph-name="e" unicode="e" d="M227 98q0 -3 -9 -12q-37 -38 -82 -64q-53 -31 -98 -31q-55 0 -55 37q0 27 24 59h-1q-14 -15 -19 -15q-1 0 -2 1v2l1 4q28 31 82 61q58 31 95 31q29 0 29 -26q0 -45 -151 -93q-6 -20 -6 -27q0 -18 23 -18q31 0 73 24q29 17 63 45q29 25 30 25q3 0 3 -3zM157 149q0 9 -12 9 q-20 0 -55 -38q-27 -29 -43 -57v-1q110 35 110 87z"></glyph><glyph glyph-name="f" unicode="f" d="M535 542q0 -39 -68 -101.5t-253 -213.5q-29 -22 -83 -68q-13 -12 -118 -155q79 22 159 90q8 7 10 7q3 0 3 -1q0 -5 -8 -13q-24 -25 -65 -50q-48 -23 -105 -56q-8 -11 -16 -36q-7 -20 -13 -39q-34 -89 -91 -182q-79 -128 -132 -128q-23 0 -23 23q0 105 324 510h-1 q-21 -20 -61 -47q1 6 39 39q23 19 45 37q44 55 114 141q68 82 148 158q117 112 166 112q29 0 29 -27zM510 540q0 18 -16 18q-37 0 -176 -163q-93 -108 -169 -210v-1l202 176q159 143 159 180zM-9 -25h-1q-59 -79 -126 -178q-99 -146 -99 -172q0 -10 9 -10q39 0 129 154 q50 86 88 206z"></glyph><glyph glyph-name="g" unicode="g" d="M299 98q0 -15 -82 -71q-54 -38 -100 -65q-173 -260 -343 -347q-41 -21 -69 -21q-48 0 -48 35q0 46 87 118q63 53 176 123q71 42 143 85q24 32 63 91v1q-63 -53 -109 -53q-38 0 -38 33q0 32 28 59v1q-18 -15 -20 -15q-1 0 -2 1v2l1 4q27 31 84.5 61.5t95.5 30.5 q36 0 32 -34h1q30 34 48 34t18 -7q0 -3 -15.5 -21.5t-123.5 -164.5v-1l46 30q45 29 79 56q13 14 47 37q1 -1 1 -2zM189 143q0 18 -18 18q-26 0 -87 -57.5t-61 -82.5q0 -12 14 -12q29 0 90.5 54t61.5 80zM54 -62v1q-195 -123 -212 -135q-150 -108 -150 -172q0 -25 28 -25 q97 0 334 331z"></glyph><glyph glyph-name="h" unicode="h" d="M534 542q0 -39 -68 -101q-84 -77 -256 -215q-31 -22 -86 -68q-18 -18 -42 -54q-19 -28 -37 -56l3 -1q147 124 195 124q31 0 31 -22q0 -18 -39 -66t-39 -61l1 -4q3 -1 7 -1q21 0 71 40.5t55 41.5v-2q0 -2 -8 -11q-30 -31 -69 -58q-50 -34 -81 -34t-31 20q0 26 44.5 78 t44.5 57t-7 5q-30 0 -125.5 -79t-112.5 -79t-17 6q0 10 33 58q26 39 42 59v1q-42 -39 -48 -39l-1 1q1 8 31 34q20 16 39 32q1 1 57 73q77 100 180 203q144 145 201 145q32 0 32 -27zM508 539q0 19 -17 19q-41 0 -186 -168q-104 -121 -165 -206v-1q102 85 204 171 q164 144 164 185z"></glyph><glyph glyph-name="i" unicode="i" d="M235 293q0 -14 -19.5 -28t-34.5 -14q-4 4 -4 18q0 35 44 35q14 0 14 -11zM176 98q0 -11 -68 -64q-53 -41 -87 -41q-30 0 -30 23t35 68q29 38 55 59v1q-16 -11 -48 -36q-12 -11 -36 -31q-6 -4 -10 -4l-1 2q10 23 65 58.5t83 35.5q7 0 12 -2v-2q0 -2 -51 -63.5t-51 -77.5 q1 -3 3 -6t6 -3q17 0 63.5 40.5t59.5 43.5v-1z"></glyph><glyph glyph-name="j" unicode="j" d="M228 293q0 -14 -19.5 -27.5t-34.5 -13.5q-4 4 -4 13q0 39 42 39q16 0 16 -11zM180 97q-3 -4 -8 -11q-14 -18 -86 -67q-61 -41 -97 -61q-78 -112 -127 -168q-73 -83 -156 -141q-79 -55 -128 -55q-42 0 -42 34q0 92 399 325q35 49 71 98q48 66 75 93v1q-17 -12 -48 -37 q-12 -12 -36 -31q-5 -3 -10 -4l-1 2q4 9 25 27q43 35 58 45q36 23 67 23q6 0 9 -3q-64 -83 -146 -191v-1q101 57 167 118q7 7 11 7q1 0 2 -1zM-76 -65v1q-27 -18 -83 -54q-115 -70 -162 -107q-111 -86 -111 -146q0 -21 30 -21q62 0 182 137q79 91 144 190z"></glyph><glyph glyph-name="k" unicode="k" d="M534 542q0 -39 -68 -101q-94 -86 -176 -151q-44 -32 -87 -64q-54 -40 -79 -68q-17 -19 -41 -54q-29 -44 -39 -56l2 -1q65 59 90 77q63 47 105 47q43 0 43 -29q0 -22 -25.5 -27t-49.5 -9q-26 -10 -26 -41q0 -47 20 -47q21 0 68 40t54 41v-2q0 -11 -69 -64q-51 -39 -86 -39 q-34 0 -34 41q0 44 26 63q10 7 48 19q26 8 26 25q0 16 -15 16q-37 0 -125.5 -81t-109.5 -81q-12 0 -16 3v4q-2 24 71 114v1q-37 -37 -45 -37q-2 0 -2 1q1 7 31 33q37 32 38 33q19 25 57 73q79 100 176 198q147 150 206 150q32 0 32 -27zM508 539q0 19 -17 19 q-62 0 -351 -374v-1q102 85 204 171q164 144 164 185z"></glyph><glyph glyph-name="l" unicode="l" d="M527 542q0 -37 -68.5 -101.5t-334.5 -282.5q-13 -10 -45.5 -64t-32.5 -68l2 -5q4 -4 8 -4q34 0 111 76l13 6v-2q0 -10 -68 -63q-52 -40 -90 -40q-31 0 -31 23q0 30 55 105h-1q-44 -41 -50 -41l-1 1q1 8 33 35l40 34q17 22 52 66q284 352 377 352q31 0 31 -27zM502 539 q0 19 -17 19q-37 0 -181 -169q-105 -122 -164 -205v-1q103 88 206 177q156 140 156 179z"></glyph><glyph glyph-name="m" unicode="m" d="M525 98q0 -12 -69 -64q-54 -40 -90 -40q-29 0 -29 23t44 75t44 57t-7 5q-30 0 -124 -79t-114 -79q-16 0 -16 6q0 20 50.5 81.5t50.5 64.5q0 6 -8 6q-27 0 -124 -79t-113 -79q-17 0 -17 6q0 14 48 77.5t49 64.5q-2 6 -6 6q-17 0 -61 -39t-45 -39q-4 0 -4 4q0 6 65 61 q40 34 70 34q25 0 25 -23q0 -17 -64 -100l3 -1q147 124 194 124q32 0 32 -23q0 -17 -27 -51q-21 -24 -42 -49l3 -1q147 124 195 124q31 0 31 -22q0 -17 -39 -65.5t-39 -61.5l1 -4q3 -1 7 -1q21 0 64 35q54 43 62 47v-1z"></glyph><glyph glyph-name="n" unicode="n" d="M367 98q0 -4 -32 -31q-27 -24 -39 -33q-54 -40 -90 -40q-30 0 -30 20q0 26 44.5 78t44.5 57t-7 5q-30 0 -125.5 -79t-112.5 -79t-17 6q0 14 48 77.5t49 64.5q-2 6 -6 6q-17 0 -61 -39t-45 -39q-4 0 -4 4q0 11 55.5 53t79.5 42q25 0 25 -23q0 -17 -64 -100l3 -1 q147 124 195 124q31 0 31 -22q0 -18 -39 -66t-39 -61l1 -4q3 -1 7 -1q22 0 72 41.5t52 41.5l3 -1.5z"></glyph><glyph glyph-name="o" unicode="o" d="M262 97q0 -12 -38 -36t-53 -24q-13 0 -18 3q-70 -49 -114 -49q-49 0 -49 37t28 69v1q-26 -26 -32 -26q-1 0 -1 1v2l1 4q31 33 84 62q57 30 98 31l6 -5q-1 -1 -11 -6q-33 -16 -79 -63q-51 -52 -51 -83q0 -14 14 -14q39 0 93 61q13 52 50 68q3 7 3 25q0 2 -1.5 5.5 t-1.5 5.5q0 4 6 4q9 0 15.5 -12.5t6.5 -22.5q0 -35 -57 -88q3 -1 6 -1q23 0 52 24q33 27 42 29q1 -1 1 -2z"></glyph><glyph glyph-name="p" unicode="p" d="M340 99q-2 -15 -69 -65q-53 -40 -90 -40q-33 0 -33 23q0 26 45.5 75t45.5 56q0 5 -8 5q-52 0 -202 -186q-60 -74 -191 -256l-38 -56q-27 -37 -41 -48.5t-24 -11.5q-23 0 -23 25t33 74q198 289 356 479h-1q-106 -99 -115 -99v0q5 12 173 164q22 20 39 20q15 0 15 -4 q0 -2 -16 -21q-55 -64 -184 -234q-118 -154 -195 -267q-64 -93 -64 -104v-3q1 -1 2 -1q11 0 111 142q126 179 200 263q123 142 189 142q31 0 31 -20t-41.5 -65.5t-41.5 -59.5q0 -9 10 -9q22 0 72 40.5t55 41.5z"></glyph><glyph glyph-name="q" unicode="q" d="M287 97q0 -1 -35 -36q-61 -61 -96 -102q-81 -95 -183 -241q-20 -29 -39 -58q-25 -34 -46 -52q-15 -13 -29 -13q-19 0 -19 22q0 34 140 230q90 128 150 204v1q-58 -58 -114 -58q-37 0 -37 33q0 32 28 59v1q-18 -15 -20 -15q-1 0 -2 1v2l1 4q24 29 83.5 61t93.5 32 q35 0 35 -26q0 -6 -2 -13h1q35 38 50 38q18 0 18 -7q0 2 -67 -86q-316 -415 -316 -450q0 -1 1 -2.5t2 -1.5q10 0 43 48q173 246 293 371q19 20 31 32q25 23 35 24v-2zM189 143q0 18 -19 18q-26 0 -86.5 -58t-60.5 -82q0 -12 13 -12q29 0 91 54t62 80z"></glyph><glyph glyph-name="r" unicode="r" d="M219 98q0 -14 -69 -64q-54 -40 -89 -40q-31 0 -31 24q0 30 57 80.5t57 51.5q0 6 -11 7q-8 1 -22 0l-17 -2q-5 0 -14 3q-7 -9 -48 -47t-45 -38q-3 0 -3 3q0 2 8 9q17 14 80 77q-7 4 -7 14q0 15 14.5 25t30.5 10q14 0 18 -10q-8 -6 -15 -12q-10 -8 -10 -16q0 -7 34 -9 t34 -20q0 -10 -42 -55.5t-42 -64.5q0 -3 3 -6h5q19 -1 70.5 41t50.5 42q3 0 3 -3z"></glyph><glyph glyph-name="s" unicode="s" d="M242 98q0 -5 -30 -31q-88 -76 -179 -76q-61 0 -61 49q0 22 14.5 42t35.5 20q22 0 22 -15t-23 -31t-23 -33q0 -22 29 -22q30 0 53 32q15 19 33.5 65.5t27.5 58.5v1q-80 -65 -94 -65q-1 0 -2 1q2 6 48 40q51 37 58 45q24 28 45 28q13 0 13 -4q0 -6 -42 -32q-6 -4 -6 -68 q0 -22 -12 -46t-30 -36v-1q47 22 82.5 51t39.5 29q1 -1 1 -2z"></glyph><glyph glyph-name="t" unicode="t" d="M252 307q-41 -37 -122 -139q8 1 16 1h41q15 0 15 -5q0 -7 -33 -7h-47q-77 -100 -77 -129q0 -12 10 -12q19 0 71 42l52 42q2 0 2 -2q0 -11 -68 -64q-53 -41 -92 -41q-30 0 -30 24q0 31 54 103v1q-23 -22 -57 -49q-3 1 -3 4t37 36q46 40 51 45q-7 0 -20 -1t-19 -1l-6 1 q-2 2 -2 5q0 6 27 6q24 0 28 1q115 145 157 145q9 0 15 -6z"></glyph><glyph glyph-name="u" unicode="u" d="M333 98q0 -12 -68 -64q-53 -40 -86 -40q-31 0 -31 24q0 30 55 85l-2 2q-134 -111 -178 -111q-33 0 -33 24q0 39 90 125v1q-16 -11 -48 -36q-12 -11 -36 -31q-6 -4 -10 -4l-1 2q17 27 65 59q52 35 82 35q10 0 12 -3q-1 -2 -55 -71q-45 -57 -45 -71q1 -1 3 -4t7 -3 q24 0 199 143q13 11 29 11q21 0 21 -5t-50.5 -65t-50.5 -75q0 -4 2 -6.5t6 -2.5q34 0 110 76l13 6v-1z"></glyph><glyph glyph-name="v" unicode="v" d="M309 99q-37 -54 -88 -54q-27 0 -31 19q-125 -73 -172 -73q-15 0 -15 14q0 6 48.5 63.5t49.5 74.5l-3 5l-6 2q-32 -13 -94 -71q-7 -7 -10 -7q-4 0 -4 4q0 10 55.5 52.5t79.5 42.5q28 0 28 -28q0 -51 -92 -132v-1q25 7 70.5 29.5t63.5 37.5q4 26 23 58q23 36 45 36 q12 0 12 -14q0 -21 -26 -49q-20 -23 -44 -38q2 -16 24 -16q23 0 53 23t32 23q1 0 1 -1z"></glyph><glyph glyph-name="w" unicode="w" d="M440 97q0 -12 -34.5 -32t-51.5 -20q-23 0 -31 14q-82 -66 -138 -66q-35 0 -35 26q0 20 16 43l28 36l-2 2q-124 -107 -169 -107q-27 0 -27 25q0 49 96 132v1q-18 -7 -59.5 -42.5t-44.5 -36.5l-3 3q4 10 39 38q69 56 109 56q19 0 19 -4q0 -1 -52.5 -58t-52.5 -79 q0 -11 9 -11q24 0 109 72.5t102 72.5q21 0 21 -5q0 -3 -44.5 -59.5t-44.5 -75.5q0 -11 14 -11q19 0 57 23q35 21 49 38q0 24 23.5 61.5t45.5 37.5q12 0 12 -17q0 -28 -69 -88q5 -12 23 -12q19 0 51 23t33 23t2 -3z"></glyph><glyph glyph-name="x" unicode="x" d="M293 92q0 -7 -28 -30q-43 -35 -58 -44q-37 -24 -68 -24q-46 0 -46 39q0 7 2 16h-1q-34 -55 -74 -55q-38 0 -38 32q0 18 11 32t28 14q21 0 21 -17q1 -1 1 -2q0 -5 -11.5 -16t-11.5 -20q0 -7 11 -7q21 0 63 54t42 77q0 16 -18 16q-25 0 -77.5 -42.5t-54.5 -42.5q-1 0 -1 1 v2l1 4q48 44 68 59q45 33 79 33q44 0 44 -38q0 -7 -2 -16h1q48 54 79 54q29 0 29 -24q0 -38 -33 -38q-16 0 -16 11q0 10 11 24q1 7 -8 7q-21 0 -62 -50.5t-41 -73.5q0 -18 21 -18q32 0 83 42t53 42q1 0 1 -1z"></glyph><glyph glyph-name="y" unicode="y" d="M328 97q0 -3 -10 -12q-77 -73 -122 -126q-83 -97 -183 -241q-33 -48 -41 -58q-28 -38 -43.5 -51.5t-29.5 -13.5q-19 0 -19 22q0 37 130 216l200 276l-3 1q-146 -117 -188 -117q-26 0 -26 24q0 45 87 126v1q-16 -11 -48 -36q-12 -11 -36 -31q-6 -4 -10 -4l-1 2q0 10 75 67 q36 27 72 27q7 0 12 -3v-2q0 -1 -50 -64t-50 -77q0 -6 6 -6q21 0 101 62q51 40 101 81q14 11 29 11q20 0 20 -5l-189.5 -256.5t-189.5 -281.5q0 -1 1 -2.5t2 -1.5q8 0 25 23q84 117 169 234q101 133 195 212q8 7 11 7t3 -3z"></glyph><glyph glyph-name="z" unicode="z" d="M259 98q0 -12 -132 -102q1 -7 1 -16q0 -51 -61 -129q-44 -57 -101 -107q-170 -149 -257 -149q-42 0 -42 35q0 67 174 193q41 29 252 162q1 6 1 11q0 33 -28 33q-22 0 -44 -16q-18 -14 -37 -28q-6 9 -6 7q0 3 6 12q25 21 42 30q45 23 91 45q52 29 80 60q5 5 4 9l-2 2 l-46 -18q-27 -11 -48 -11q-38 0 -48 18q-64 -66 -70 -66q-1 0 -3 1v3v2q34 38 68 69v4q0 43 43 43q17 0 17 -10q-17 -12 -17 -23q0 -13 29 -13q23 0 57 10t36 10q10 0 10 -7t-8 -18q-26 -35 -78 -64l-92 -44v-1q14 4 19 4q42 0 55 -34q30 20 90 62q9 9 30 26q9 6 13 6h1z M90 -26q-52 -33 -155 -100q-244 -156 -244 -247q0 -21 23 -21q74 0 216 148q135 139 160 220z"></glyph><glyph glyph-name="braceleft" unicode="{" d="M555 463l-6 -8q-7 0 -20 1h-20q-51 0 -91 -20q-30 -15 -63 -76q-42 -76 -63 -100q-46 -51 -114 -54q15 -15 15 -41q0 -30 -59.5 -103t-59.5 -95q0 -26 34 -38q15 -5 56 -10l-6 -6q-108 0 -108 60q0 35 59 108t59 98q0 26 -29 33v1q69 0 113 47q13 14 64 98q38 63 83 87 q38 20 121 20z"></glyph><glyph glyph-name="bar" unicode="|" d="M82 -250h-20v1000h20v-1000z"></glyph><glyph glyph-name="braceright" unicode="}" d="M366 404q0 -33 -57 -104t-57 -96t29 -30v-1q-5 1 -10 1q-7 0 -15 -2q-50 -11 -85 -49q-20 -22 -52.5 -78t-55.5 -80q-50 -53 -166 -53q-1 0 -36 2l6 7q72 0 102 7q44 10 84 76q66 107 72 114q50 59 122 62q-21 17 -21 40q0 25 58 96t58 93q0 38 -89 49l5 5q108 0 108 -59 z"></glyph><glyph glyph-name="asciitilde" unicode="~" d="M308 153q0 -5 -2 -6q0 1 -4 6q-22 28 -78 28q-20 0 -59.5 -11.5t-60.5 -11.5q-15 0 -33.5 11t-18.5 26q0 2 1 3q6 -5 11 -10q10 -9 26 -9q24 0 68.5 17.5t68.5 17.5q31 0 54 -14q27 -17 27 -47z"></glyph><glyph glyph-name="quotesinglbase" unicode="‚" d="M73 36q0 -15 -42.5 -51t-53.5 -35h-1l-1 2q11 12 22 25q22 25 22 35q0 1 -1 3v3q0 11 16 19q13 7 26 7t13 -8z"></glyph><glyph glyph-name="quotedblbase" unicode="„" d="M161 35q0 -13 -42.5 -49t-54.5 -36h-1l-1 2q44 47 44 61q0 10 1 12q3 8 17 13.5t24 5.5q13 0 13 -9zM73 34q0 -13 -42.5 -49.5t-53.5 -35.5h-1l-1 2q11 12 22 25q22 25 22 35q0 1 -1 3v3q0 11 16 19q13 7 26 7t13 -9z"></glyph><glyph glyph-name="ellipsis" unicode="…" d="M330 33q0 -13 -20 -27.5t-34 -14.5q-4 5 -4 15q0 38 42 38q16 0 16 -11zM203 33q0 -13 -20 -27.5t-34 -14.5q-4 5 -4 15q0 38 42 38q16 0 16 -11zM76 33q0 -13 -20 -27.5t-34 -14.5q-4 5 -4 15q0 38 42 38q16 0 16 -11z"></glyph><glyph glyph-name="dagger" unicode="†" d="M363 194q0 -5 -23 -6l-92 -3q-58 -71 -175 -212q-22 -29 -64 -76q-7 -5 -11 -5t-4 3q0 6 10 19q50 67 151 201l51 68h-61q-33 0 -33 10q0 13 29 13h39q17 0 40 -2q25 36 80 103q13 14 36 14q10 0 10 -7q0 -14 -85 -112q7 0 79 -3q23 -1 23 -5z"></glyph><glyph glyph-name="daggerdbl" unicode="‡" d="M371 211q0 -4 -7 -5q-37 -1 -103 -4l-85 -103q30 -2 93 -5q22 -1 22 -4q0 -5 -7 -6q-3 -1 -15 -1l-108 -3l-141 -171q-14 -17 -21 -17q-5 0 -5 4q0 6 10 19l123 164h-53q-33 0 -33 11q0 12 30 12q37 0 72 -3q18 25 75 102q-65 -3 -86 1q-11 2 -11 10q0 11 30 11t82 -2 q20 31 66 86q14 13 36 13q11 0 11 -7q0 -8 -71 -94q24 -1 73 -3q23 -1 23 -5z"></glyph><glyph glyph-name="circumflex" unicode="ˆ" d="M296 201l-3 -1q-15 0 -51 46q-17 -10 -55 -28q-45 -20 -55 -20q-4 0 -4 3q0 1 2 3q11 6 32 19q29 16 82 53q6 5 10 5q3 0 6 -7q36 -79 36 -73z"></glyph><glyph glyph-name="perthousand" unicode="‰" d="M521 116q0 -38 -43.5 -80t-81.5 -42q-35 0 -35 33q0 36 42.5 76.5t78.5 40.5q5 0 5 -2t-5 -3t-11 -6q-26 -20 -46 -46q-35 -46 -35 -72q0 -12 15 -12q24 0 58.5 50t34.5 76q0 6 -2 8q-6 7 -6 5q1 2 5 2q26 0 26 -28zM364 116q0 -37 -43 -79.5t-82 -42.5q-36 0 -36 33 q0 27 26 59q24 29 52.5 43.5t43.5 14.5q5 0 5 -2t-5 -3t-11.5 -6t-20.5 -18q-60 -61 -60 -98q0 -14 15 -14q23 0 58.5 50t35.5 75q0 7 -4.5 10t-4.5 4q1 2 5 2q26 0 26 -28zM377 297q0 -3 -73 -78l-84 -86q-37 -39 -151 -167q-8 -9 -13 -9q-2 0 -3 1l-1 2q0 8 116 137 q89 102 137 153v1q-34 -21 -72 -21q-12 0 -30 7q2 -7 2 -14q0 -36 -44.5 -78.5t-80.5 -42.5q-35 0 -35 33q0 38 42.5 78t80.5 40q2 -1 2 -2q0 2 -16 -9q-22 -15 -50 -53q-30 -42 -30 -65q0 -12 14 -12q24 0 59 49t35 74q0 8 -2 10q-6 9 -6 5q0 3 5 3q13 0 17 -6q15 -9 36 -9 q54 0 94 35q9 9 19.5 18t23.5 9q8 0 8 -3z"></glyph><glyph glyph-name="guilsinglleft" unicode="‹" d="M163 166q5 -5 -15 -24l-18 -17q-21 -19 -42 -32q19 -50 19 -80v-6q0 -3 -2 -3h-1q-5 0 -5 7q-7 17 -19 38l-12 21q-16 28 -16 25q0 2 0.5 4t30.5 19q27 16 72 44q5 5 8 4z"></glyph><glyph glyph-name="quoteleft" unicode="‘" d="M181 362q-4 -3 -8 -7q-28 -30 -28 -52v-4q1 -2 1 -3q0 -12 -13.5 -19.5t-26.5 -7.5q-9 0 -9 9q0 14 34 50t48 36h1z"></glyph><glyph glyph-name="quoteright" unicode="’" d="M177 349q0 -13 -42.5 -49.5t-53.5 -35.5h-1l-1 2q11 12 22 25q22 25 22 35q0 1 -1 3v3q0 11 16 19q13 7 26 7t13 -9z"></glyph><glyph glyph-name="quotedblleft" unicode="“" d="M260 362q-4 -3 -8 -7q-28 -30 -28 -52v-4q1 -2 1 -3q0 -12 -13.5 -19.5t-26.5 -7.5q-9 0 -9 10q0 14 34 49.5t48 35.5h1zM181 363l-7 -7q-28 -30 -28 -54q0 -9 -1 -11q-6 -21 -38 -21q-10 0 -10 10q0 13 34 49t47 36q2 0 3 -2z"></glyph><glyph glyph-name="quotedblright" unicode="”" d="M273 349q0 -13 -42.5 -49t-54.5 -36h-1l-1 2q44 47 44 61q0 10 1 12q3 8 17 13.5t24 5.5q13 0 13 -9zM185 349q0 -15 -42.5 -51t-53.5 -35h-1l-1 2q11 12 22 25q22 25 22 35q0 1 -1 3v3q0 11 16 19q13 7 26 7t13 -8z"></glyph><glyph glyph-name="bullet" unicode="•" d="M202 147q0 -21 -14.5 -35.5t-35.5 -14.5q-22 0 -36.5 14t-14.5 36t14.5 36.5t36.5 14.5q21 0 35.5 -15t14.5 -36z"></glyph><glyph glyph-name="endash" unicode="–" d="M322 99q0 -5 -15 -6q-147 -6 -240 -6q-21 0 -21 10q0 15 18 15q13 0 131 -4l111 -4q16 -1 16 -5z"></glyph><glyph glyph-name="emdash" unicode="—" d="M518 99q0 -7 -64 -7l-385 -5q-23 0 -23 10q0 15 17 15q9 0 143 -3q214 -5 296 -5q16 0 16 -5z"></glyph><glyph glyph-name="tilde" unicode="˜" d="M318 260q0 -13 -24 -35q-15 -14 -36 -14q-13 0 -33.5 13.5t-34.5 13.5q-13 0 -27 -14t-15 -14h-1q-1 1 -1 3q0 16 27 38q14 11 33 11q14 0 33.5 -14t32.5 -14q14 0 28.5 14.5t15.5 14.5h1q1 -1 1 -3z"></glyph><glyph glyph-name="trademark" unicode="™" d="M420 193h-65v10q18 2 18 18q0 14 -5 74q-15 -33 -44 -99l-10 -3q-7 18 -23 54q-7 15 -21 46h-1q0 -9 -3 -36q-2 -23 -2 -37q0 -17 15 -17v-10h-45v10q9 0 12.5 4t8.5 37q5 30 5 41q0 17 -18 20v9h49q13 -29 37 -86l38 86h48v-9q-20 -1 -18 -22q2 -35 12 -75q3 -4 12 -5 v-10zM231 281l-10 -2q-5 18 -10.5 21t-26.5 3v-75q0 -25 20 -25v-10h-70v10q21 0 21 25v75q-21 0 -26 -2q-8 -4 -12 -22l-10 2l4 33h116z"></glyph><glyph glyph-name="guilsinglright" unicode="›" d="M134 71q-1 -4 -11 -8q-22 -13 -70 -41q-3 -2 -28 -19q-1 0 -2 1q-3 5 16 24q33 33 60 49q-17 44 -20 79q0 10 3 10h1q2 0 5 -7q14 -25 41 -76q6 -8 5 -12z"></glyph><glyph glyph-name="nonbreakingspace" unicode=" "></glyph><glyph glyph-name="afii10062" unicode="Ў" d="M2107 1126q0 -18 -85 -82q-62 -47 -128 -47q-85 0 -85 90q0 18 10 35t27 17q39 0 39 -32q0 -24 -11 -37q-8 -8 -33 -21q12 -31 61 -31q38 0 86 30q29 17 72 54q35 29 40 29q7 0 7 -5zM2376 1024q0 -14 -40 -44q-44 -33 -103 -78q-346 -265 -783 -795q-381 -463 -588 -806 q-108 -178 -108 -223q0 -15 10 -15q16 0 62 60q17 21 226 318q101 143 246 320q157 192 257 292q48 48 54 48q3 0 3 -1q0 -4 -35 -38q-47 -45 -99 -105q-205 -235 -567 -738q-124 -172 -154 -172q-38 0 -38 42q0 62 100 229q186 310 437 625q273 341 446 527 q262 280 513 461l74 48q59 38 59 47q0 4 -14 4q-25 0 -82 -34q-149 -88 -408 -328q-86 -80 -196 -193q-252 -260 -290 -297q-233 -222 -311 -222q-34 0 -52 22t-18 57q0 93 163 280q151 164 303 328q163 188 163 285q0 61 -67 89q-49 21 -119 21q-180 0 -369 -103 q-176 -97 -296 -246v-1q202 105 375 105q67 0 110 -25q53 -31 53 -93q0 -60 -49 -129q-69 -98 -182 -156t-234 -58q-75 0 -122 36q-51 40 -51 113q0 77 58 168v1q-152 -97 -274 -223q-151 -156 -185 -291q92 67 167 67q98 0 98 -83q0 -70 -50.5 -118.5t-120.5 -48.5 q-53 0 -85 34t-32 87q0 5 1 15t1 15q-78 -73 -129 -159q-60 -103 -60 -193q0 -93 64 -119q17 -7 33 -3l2 -1q4 -8 -28 -8q-44 0 -71 44q-24 38 -24 85q0 101 68 208q57 89 148 166q31 160 191 323q128 131 304 232q53 75 171 170q109 89 244 143q144 59 274 59q87 0 147 -27 q79 -37 79 -113q0 -123 -193 -332l-179 -194q-119 -129 -158 -176q-110 -137 -110 -197q0 -43 43 -43q69 0 279 199q26 25 246 250q164 168 260 257q211 196 375 305q94 62 139 62q28 0 28 -18zM1278 676q0 57 -50 85q-39 23 -101 23q-176 0 -393 -124q-68 -98 -68 -180 q0 -68 49 -105q44 -33 114 -33q92 0 200 58q85 46 157 115q92 89 92 161zM504 120q0 73 -82 73q-81 0 -173 -77q-4 -22 -4 -43q0 -47 27 -78t73 -31q59 0 109 48.5t50 107.5z"></glyph><glyph glyph-name="afii10110" unicode="ў" d="M299 266q-2 -17 -35 -35.5t-52 -18.5q-10 0 -21.5 6.5t-11.5 15.5v25q5 11 14 11q16 0 16 -13q0 -14 -18 -24q5 -12 22 -12q19 0 51.5 23l32.5 23q1 0 2 -1zM328 97q0 -3 -10 -12q-77 -73 -122 -126q-83 -97 -183 -241q-33 -48 -41 -58q-28 -38 -43.5 -51.5t-29.5 -13.5 q-19 0 -19 22q0 37 130 216l200 276l-3 1q-146 -117 -188 -117q-26 0 -26 24q0 45 87 126v1q-16 -11 -48 -36q-12 -11 -36 -31q-6 -4 -10 -4l-1 2q0 10 75 67q36 27 72 27q7 0 12 -3v-2q0 -1 -50 -64t-50 -77q0 -6 6 -6q21 0 101 62q51 40 101 81q14 11 29 11q20 0 20 -5 l-189.5 -256.5t-189.5 -281.5q0 -1 1 -2.5t2 -1.5q8 0 25 23q84 117 169 234q101 133 195 212q8 7 11 7t3 -3z"></glyph><glyph glyph-name="currency" unicode="¤" d="M329 244q0 -9 -51 -47q6 -12 6 -26q0 -60 -61 -110q31 -43 31 -53q0 -8 -7 -8q-4 0 -21 22q-15 18 -20 27q-40 -30 -81 -30q-30 0 -51 23q-62 -40 -66 -40q-3 2 -3 4q0 5 58 51q-6 11 -6 31q0 59 60 105q-30 49 -30 55t7 6q4 0 10 -10q10 -13 30 -38q40 28 82 28 q34 0 52 -22q50 36 56 36q5 0 5 -4zM245 172q0 49 -42 49q-39 0 -75 -51q-33 -47 -33 -89q0 -51 40 -51q41 0 77 52q33 47 33 90z"></glyph><glyph glyph-name="afii10050" unicode="Ґ" d="M2365 1053q0 -90 -65 -164q-37 -20 -71 -19h-23q-96 1 -210 56q-98 50 -195 100q-118 54 -225 53h-5q-39 -183 -187 -319q-81 -74 -187 -122q-114 -52 -215 -52q-134 0 -134 93q0 61 73 160q-18 40 -18 88q0 98 78 198q71 92 181 152.5t207 60.5q87 0 146 -57t59 -144 q0 -13 -2 -26q94 0 220 -54q104 -51 209 -101q117 -54 191 -54q127 0 148 144q1 21 5 57q20 -5 20 -50zM1767 966q0 -16 -31 -28q-65 -24 -108 -74q-68 -79 -244 -340q-138 -204 -201 -280q-118 -144 -240 -215q-148 -86 -332 -86q-181 0 -273 92q-100 15 -170 62 q-87 59 -87 148q0 91 71 141q62 43 157 43q15 0 30 -1q60 78 160.5 129t198.5 51q45 0 86 -7q1 17 8 41q9 29 21 32l2 -2q-2 -3 -6 -10q-14 -26 -18 -62q108 -22 156 -93q175 10 429 210q57 45 114 91q67 52 119 85q26 14 78 44q17 11 33 22q23 15 35 15q5 0 10 -2 q2 -2 2 -6zM1565 1119q1 84 -66 139q-62 52 -148 52q-150 0 -291 -115q-149 -121 -149 -267q0 -44 18 -84q123 121 293 195q180 78 343 72v8zM1557 1078h-14q-145 1 -324 -70.5t-284 -172.5q45 -67 139 -67q93 0 193 69q61 42 79 91q1 3 4 7q1 -4 1 -5q0 -43 -73 -101 q-64 -50 -115 -65q-34 -10 -79 -10q-106 0 -154 75q-28 -26 -48 -62q-22 -41 -22 -75q0 -48 45 -73q36 -19 89 -19q76 0 186 48q218 95 314 265q53 94 63 165zM1676 921v1q-41 -19 -90 -55l-84 -64q-84 -65 -167 -130q-103 -78 -180 -121q-102 -56 -196 -72q18 -35 18 -82 q0 -163 -163 -275q-145 -100 -316 -100q-23 0 -125 9q91 -78 244 -78q142 0 280 81q121 71 223 193q51 60 159 216q63 92 195 273q113 148 202 204zM929 506q-43 58 -138 81q8 -82 126 -82q7 0 12 1zM960 403q0 43 -19 74q-76 0 -109 17q-48 24 -48 93q-41 11 -84 11 q-93 0 -186.5 -49.5t-149.5 -126.5q93 -14 128 -81q9 -17 9 -26q0 -3 -3 -6l-6 15q-30 75 -133 90q-64 -80 -64 -197q0 -106 68 -172q46 -8 105 -8q99 0 181 24q126 36 213 122q98 98 98 220zM331 417q-15 1 -30 1q-80 0 -135 -42q-61 -46 -61 -123q0 -82 73 -139 q60 -47 150 -65v1q-62 69 -62 168q0 114 65 199z"></glyph><glyph glyph-name="brokenbar" unicode="¦" d="M82 325h-20v350h20v-350zM82 -175h-20v350h20v-350z"></glyph><glyph glyph-name="section" unicode="§" d="M361 282q0 -13 -8.5 -25t-20.5 -12q-19 0 -19 18q0 9 8.5 20t8.5 14q0 15 -28 15t-49.5 -21t-21.5 -49q0 -19 15 -55t15 -55q0 -41 -33.5 -68.5t-75.5 -30.5q7 -22 7 -39q0 -42 -37 -70t-80 -28q-28 0 -48 13q-24 15 -24 41q0 16 9.5 28.5t24.5 12.5q23 0 23 -19 q0 -12 -10.5 -24t-10.5 -16q0 -25 40 -25q33 0 56 20t23 53q0 19 -13.5 54.5t-13.5 54.5q0 12 6 26q27 70 103 70q-7 23 -7 43q0 40 35 67q32 26 73 26q20 0 36.5 -10t16.5 -29zM225 114q0 31 -15 61h-1q-33 0 -56.5 -19t-23.5 -51q0 -16 18 -63q32 3 55 22t23 50z"></glyph><glyph glyph-name="afii10023" unicode="Ё" d="M1281 1136q0 -14 -19.5 -28t-34.5 -14q-4 4 -4 18q0 35 44 35q14 0 14 -11zM1081 1136q0 -14 -19.5 -28t-34.5 -14q-4 4 -4 18q0 35 44 35q14 0 14 -11zM1276 775q0 -79 -68 -124q-58 -40 -141 -40q-55 0 -98 19q-52 24 -66 70q-43 -9 -99 -9q-83 0 -162 14 q-18 -45 -18 -94q0 -22 4 -41q33 6 60 6q109 0 109 -51q0 -42 -65 -42q-102 0 -141 68q-135 -39 -240 -168q-109 -132 -109 -269q0 -99 53.5 -153.5t151.5 -54.5q140 0 264 102q57 47 96 107q46 72 46 135q0 59 -43 94q-40 32 -101 32q-93 0 -165 -56q-78 -61 -78 -151 q0 -68 71 -68q22 0 61 19v-2l-1 -4q-20 -24 -70 -24q-38 0 -62.5 25.5t-24.5 62.5q0 88 95 152q86 57 178 57q73 0 121 -40q52 -42 52 -114q0 -79 -57 -154q-66 -88 -172 -138q-102 -48 -215 -48q-111 0 -184 55q-80 61 -80 169q0 152 132 283q118 119 276 161 q-11 29 -11 58q0 50 21 95q-130 37 -211 103q-103 83 -103 200q0 107 81 174q76 63 185 63q96 0 177 -54q93 -60 93 -151q0 -15 -5 -16q-3 1 -3 5q0 79 -86 145q-74 57 -178 57q-101 0 -171 -54q-76 -59 -76 -157q0 -110 103 -192q80 -63 205 -100q55 95 175 149 q107 47 227 47q98 0 170 -31q97 -42 97 -127zM1265 774q0 81 -92 120q-67 28 -160 28q-110 0 -207 -50q-105 -54 -154 -145v-1q88 -20 188 -20q23 0 62 6v5q-1 39 28 68t68 29q40 0 40 -32q0 -54 -124 -80q23 -70 152 -70q74 0 131 33q68 40 68 109zM1027 783q0 22 -32 22 q-34 0 -58.5 -27t-23.5 -61v-3q114 24 114 69zM785 526q0 40 -98 40q-26 0 -56 -6q18 -68 107 -68q47 0 47 34z"></glyph><glyph glyph-name="copyright" unicode="©" d="M429 135q0 -65 -48.5 -109.5t-113.5 -44.5q-66 0 -114.5 44.5t-48.5 109.5t48.5 110t114.5 45q65 0 113.5 -45t48.5 -110zM403 134q0 57 -40 97t-96 40t-96 -40.5t-40 -96.5t40 -95.5t96 -39.5t96 39.5t40 95.5zM342 102q0 -25 -7 -35q-11 -16 -54 -16q-40 0 -68 20 q-31 23 -31 62q0 40 31 64q28 22 69 22q59 0 59 -34v-22h-15q-2 42 -44 42q-60 0 -60 -69q0 -71 58 -71q36 0 50 37h12z"></glyph><glyph glyph-name="afii10053" unicode="Є" d="M1549 733q0 -46 -23 -102q-20 -49 -50 -87q-61 -79 -192 -131q-120 -48 -229 -48q-159 0 -242 47q-107 60 -107 157q0 87 77 154q65 56 159 82q57 16 138 16q140 0 204 -73q29 -32 29 -66q0 -31 -19 -44h-4q13 20 13 47q0 25 -25 57q-48 60 -182 60q-76 0 -142 -16 q-51 -12 -115 -48q-69 -40 -95 -78q-32 -45 -32 -97q0 -88 123 -134q90 -34 197 -34q169 0 323 83q184 98 184 251q0 233 -393 233q-143 0 -305 -71q-140 -62 -270 -165v-3q47 -1 84 -25q44 -28 44 -72q0 -46 -76 -81q-65 -29 -118 -29q-57 0 -131 16q-176 -237 -176 -414 q0 -105 57.5 -163.5t162.5 -58.5q171 0 317 157q111 120 111 224q0 55 -33.5 84.5t-88.5 29.5q-89 0 -178 -79t-89 -166q0 -90 80 -90q50 0 86 31q1 -2 1 -4q0 -13 -36 -26q-32 -12 -49 -12q-95 0 -95 108q0 99 92 176q87 73 188 73q149 0 149 -139q0 -151 -154 -269 q-144 -111 -299 -111q-123 0 -195 57q-79 62 -79 182q0 198 177 429q-76 27 -123 80q-53 58 -53 134q0 14 1 25.5t3 11.5q5 0 8 -29q1 -17 6 -50q23 -91 172 -156q1 1 35 37q190 196 376 282q197 90 460 90q32 0 89 -11q252 -48 252 -232zM671 630q0 31 -15 48 q-12 13 -43.5 26t-54.5 13q-35 -28 -101 -88q-22 -26 -67 -76q48 -19 134 -19q28 0 76 18q71 26 71 78z"></glyph><glyph glyph-name="guillemotleft" unicode="«" d="M248 163q0 -8 -33 -37q-29 -24 -44 -33q20 -53 20 -80q0 -9 -3 -9t-4 3q-19 38 -33 63q-8 12 -16 25q0 4 32 23q28 15 71 44q5 4 7 4h2zM163 163q0 -8 -32 -36q-28 -25 -44 -34q19 -50 19 -80q0 -9 -2 -9q-6 0 -6 7q-18 41 -42 76q-5 7 -5 8q0 7 11 12q59 29 92 55 q5 4 6 4h2z"></glyph><glyph glyph-name="logicalnot" unicode="¬" d="M413 163q0 -2 -2 -5q-18 -21 -54 -62q-22 -28 -58 -68q-5 -4 -8 -4q-2 0 -2.5 1t-1.5 2q0 19 79 118q-89 2 -267 7q-19 1 -19 7q0 4 7 6q3 0 81 2q75 1 153 4q67 2 77 2q15 0 15 -10z"></glyph><glyph glyph-name="sfthyphen" unicode="­" d="M195 65l-2 -5l-4 3q-10 16 -40 16q-13 0 -37.5 -4.5t-37.5 -4.5q-33 0 -36 16l1 3h2q10 -5 18 -5q17 0 46 16.5t46 16.5q45 0 44 -52z"></glyph><glyph glyph-name="sfthyphen" unicode="−" d="M195 65l-2 -5l-4 3q-10 16 -40 16q-13 0 -37.5 -4.5t-37.5 -4.5q-33 0 -36 16l1 3h2q10 -5 18 -5q17 0 46 16.5t46 16.5q45 0 44 -52z"></glyph><glyph glyph-name="registered" unicode="®" d="M366 286q0 -52 -39.5 -89.5t-92.5 -37.5t-93.5 37.5t-40.5 89.5q0 53 40.5 90.5t93.5 37.5q52 0 92 -38t40 -90zM345 285q0 46 -32.5 78.5t-78.5 32.5q-45 0 -78 -33t-33 -78q0 -44 33.5 -77t77.5 -33t77.5 33t33.5 77zM319 221h-8q-5 -1 -8 -1q-24 0 -40 19q-6 6 -25 38 q-5 -1 -12 -1q-8 0 -8 1v-19q0 -25 22 -25v-11h-73v11q21 0 21 26v60q0 21 -21 21v11h70q50 0 50 -34q0 -19 -23 -30q14 -25 22 -34q15 -18 33 -22v-10zM256 316q0 23 -31 23h-7v-51h5h5q28 0 28 28z"></glyph><glyph glyph-name="afii10056" unicode="Ї" d="M2487 1146q0 -14 -19.5 -28t-34.5 -14q-4 4 -4 18q0 35 44 35q14 0 14 -11zM2287 1146q0 -14 -19.5 -28t-34.5 -14q-4 4 -4 18q0 35 44 35q14 0 14 -11zM2337 1048q0 -15 -38 -30q-27 -9 -77 -33q-82 -49 -259 -274q-118 -159 -237 -317q-197 -261 -411 -384 q-240 -138 -556 -138q-193 0 -308 70q-138 6 -239 48q-144 59 -144 172q0 105 124 160q94 42 215 42q79 92 230 155q143 61 271 65q35 1 100 0q1 34 21 62q9 12 11 12h3q-8 -16 -16.5 -32t-8.5 -43q154 -12 230 -79q132 17 276 84q107 50 253 146q120 80 241 160 q79 50 145 85q23 10 66 32q24 15 48 29q31 17 52 17q8 0 8 -9zM2217 995v1q-84 -39 -201 -118l-234 -158q-143 -96 -250 -149q-140 -70 -264 -92q35 -44 35 -104q0 -160 -193 -284.5t-480 -145.5q-41 -3 -129 -3v-1q110 -56 274 -56q244 0 463 121q205 112 362 315 q87 114 175 227q103 132 183 221q147 163 259 226zM1221 501q-68 57 -202 69q8 -37 55 -56q38 -16 82 -16q45 0 65 3zM1278 376q0 58 -35 99q-35 -5 -89 -5q-56 0 -94 23q-45 27 -51 78q-35 3 -60 3q-138 0 -275 -54q-146 -58 -230 -157q134 -6 188 -74q6 -8 14 -24l-3 -5 q-1 1 -11 16q-47 70 -194 77q-68 -82 -68 -191q0 -134 115 -207q38 -2 62 -2h10q310 2 529 140q192 121 192 283zM437 -44v1q-109 76 -109 205q0 107 71 192q-114 -2 -193 -41q-104 -51 -104 -152q0 -98 125 -155q91 -41 210 -50z"></glyph><glyph glyph-name="degree" unicode="°" d="M169 218q0 -18 -13.5 -31t-31.5 -13q-19 0 -32 12.5t-13 31.5t13 32.5t32 13.5t32 -13.5t13 -32.5zM154 217q0 12 -9 21t-21 9t-21 -9t-9 -21q0 -29 30 -29t30 29z"></glyph><glyph glyph-name="plusminus" unicode="±" d="M375 173q0 -4 -15 -5q-58 -2 -127 -2q-70 -77 -76 -77q-1 1 -2 1.5t-1 2.5q0 7 48 72q-117 -5 -126 2q-3 1 -3 4q0 15 22 15l120 -4q20 30 63 86q7 8 21 8q16 0 16 -6q0 -5 -69 -89q40 -1 113 -3q16 0 16 -5zM303 66q0 -5 -15 -6q-98 -4 -248 -4q-13 0 -13 7q0 17 24 17 q26 0 237 -9q15 -1 15 -5z"></glyph><glyph glyph-name="afii10055" unicode="І" d="M2503 1146q0 -14 -19.5 -28t-34.5 -14q-4 4 -4 18q0 35 44 35q14 0 14 -11zM2393 1048q0 -15 -38 -30q-27 -9 -77 -33q-82 -49 -259 -274q-118 -159 -237 -317q-197 -261 -411 -384q-240 -138 -556 -138q-193 0 -308 70q-138 6 -239 48q-144 59 -144 172q0 105 124 160 q94 42 215 42q79 92 230 155q143 61 271 65q35 1 100 0q1 34 21 62q9 12 11 12h3q-8 -16 -16.5 -32t-8.5 -43q154 -12 230 -79q132 17 276 84q107 50 253 146q120 80 241 160q79 50 145 85q23 10 66 32q24 15 48 29q31 17 52 17q8 0 8 -9zM2273 995v1q-84 -39 -201 -118 l-234 -158q-143 -96 -250 -149q-140 -70 -264 -92q35 -44 35 -104q0 -160 -193 -284.5t-480 -145.5q-41 -3 -129 -3v-1q110 -56 274 -56q244 0 463 121q205 112 362 315q87 114 175 227q103 132 183 221q147 163 259 226zM1277 501q-68 57 -202 69q8 -37 55 -56 q38 -16 82 -16q45 0 65 3zM1334 376q0 58 -35 99q-35 -5 -89 -5q-56 0 -94 23q-45 27 -51 78q-35 3 -60 3q-138 0 -275 -54q-146 -58 -230 -157q134 -6 188 -74q6 -8 14 -24l-3 -5q-1 1 -11 16q-47 70 -194 77q-68 -82 -68 -191q0 -134 115 -207q38 -2 62 -2h10 q310 2 529 140q192 121 192 283zM493 -44v1q-109 76 -109 205q0 107 71 192q-114 -2 -193 -41q-104 -51 -104 -152q0 -98 125 -155q91 -41 210 -50z"></glyph><glyph glyph-name="afii10103" unicode="і" d="M235 293q0 -14 -19.5 -28t-34.5 -14q-4 4 -4 18q0 35 44 35q14 0 14 -11zM176 98q0 -11 -68 -64q-53 -41 -87 -41q-30 0 -30 23t35 68q29 38 55 59v1q-16 -11 -48 -36q-12 -11 -36 -31q-6 -4 -10 -4l-1 2q10 23 65 58.5t83 35.5q7 0 12 -2v-2q0 -2 -51 -63.5t-51 -77.5 q1 -3 3 -6t6 -3q17 0 63.5 40.5t59.5 43.5v-1z"></glyph><glyph glyph-name="afii10098" unicode="ґ" d="M200 97q-10 -30 -110 -88q-26 -15 -50 -15q-30 0 -30 21q0 24 44.5 78t44.5 55q0 5 -4 6l-47 -46q8 13 22 40q-7 -4 -42.5 -36t-36.5 -32t-2 1t-2 3q1 2 2 3q21 21 42 43q26 25 47 34q3 8 7 17l78 78q-26 -62 -34 -71l-16 -16q30 0 30 -22q0 -17 -39 -65t-40 -62l2 -4 q4 -2 8 -2q18 0 61 33q30 23 59 47h3h3z"></glyph><glyph glyph-name="mu1" unicode="µ" d="M334 98q0 -9 -47 -47q-40 -31 -60 -43q-23 -14 -48 -14q-31 0 -31 24q0 30 55 85l-2 2q-65 -57 -128 -95q-27 -16 -50 -16q-16 0 -21 13q-13 -15 -26.5 -48.5t-13.5 -51.5v-6q1 -3 1 -5t-1 -3h-2q-18 0 -18 24q0 45 51 121q40 58 87 105v1q-19 -11 -41.5 -30.5 t-42.5 -36.5q-6 -4 -8 -4h-2l-1 2q0 14 83 72q32 22 61 22q15 0 15 -5q0 -1 -50 -62t-50 -77q0 -8 10 -8q31 0 150 103q24 20 61 48q6 3 17 3q21 0 21 -6q0 -3 -50.5 -63.5t-50.5 -75.5q0 -10 8 -10q20 0 70 42t51 42q2 -1 3 -2z"></glyph><glyph glyph-name="mu1" unicode="μ" d="M334 98q0 -9 -47 -47q-40 -31 -60 -43q-23 -14 -48 -14q-31 0 -31 24q0 30 55 85l-2 2q-65 -57 -128 -95q-27 -16 -50 -16q-16 0 -21 13q-13 -15 -26.5 -48.5t-13.5 -51.5v-6q1 -3 1 -5t-1 -3h-2q-18 0 -18 24q0 45 51 121q40 58 87 105v1q-19 -11 -41.5 -30.5 t-42.5 -36.5q-6 -4 -8 -4h-2l-1 2q0 14 83 72q32 22 61 22q15 0 15 -5q0 -1 -50 -62t-50 -77q0 -8 10 -8q31 0 150 103q24 20 61 48q6 3 17 3q21 0 21 -6q0 -3 -50.5 -63.5t-50.5 -75.5q0 -10 8 -10q20 0 70 42t51 42q2 -1 3 -2z"></glyph><glyph glyph-name="paragraph" unicode="¶" d="M609 383q0 -7 -11 -7q-7 0 -16 8t-20 8q-47 0 -117 -82q30 -7 30 -18q0 -1 -0.5 -2t-1.5 -1q-3 0 -7 3q-8 6 -27 12q-40 -52 -121 -154q-137 -168 -220 -168q-14 0 -18 1q-56 -37 -105 -37q-27 0 -48 10q-26 12 -26 36q0 17 10 29.5t25 12.5q23 0 23 -19q0 -12 -10.5 -24 t-10.5 -18q0 -18 38 -18q55 0 118 56q34 30 91 101q-31 4 -51.5 26t-20.5 53q0 38 29 70q59 65 201 65q45 0 78 -8q82 82 146 82q42 0 42 -17zM380 314v1h-13q-122 0 -179 -75q-30 -40 -30 -75q0 -38 33 -46q3 5 49 62q94 116 140 133zM416 310q-7 3 -16 3q-14 0 -35 -19 q-27 -24 -115 -134q-63 -79 -119 -135q-14 -14 -42 -34v-1q1 0 4 -1h4q48 0 128 89q2 3 104 131q27 35 87 101z"></glyph><glyph glyph-name="periodcentered" unicode="·" d="M110 150q0 -13 -20 -27t-34 -14q-4 6 -4 17q0 36 41 36q17 0 17 -12z"></glyph><glyph glyph-name="periodcentered" unicode="∙" d="M110 150q0 -13 -20 -27t-34 -14q-4 6 -4 17q0 36 41 36q17 0 17 -12z"></glyph><glyph glyph-name="afii10071" unicode="ё" d="M285 293q0 -14 -19.5 -28t-34.5 -14q-4 4 -4 18q0 35 44 35q14 0 14 -11zM185 293q0 -14 -19.5 -28t-34.5 -14q-4 4 -4 18q0 35 44 35q14 0 14 -11zM227 98q0 -3 -9 -12q-37 -38 -82 -64q-53 -31 -98 -31q-55 0 -55 37q0 27 24 59h-1q-14 -15 -19 -15q-1 0 -2 1v2l1 4 q28 31 82 61q58 31 95 31q29 0 29 -26q0 -45 -151 -93q-6 -20 -6 -27q0 -18 23 -18q31 0 73 24q29 17 63 45q29 25 30 25q3 0 3 -3zM157 149q0 9 -12 9q-20 0 -55 -38q-27 -29 -43 -57v-1q110 35 110 87z"></glyph><glyph glyph-name="afii10101" unicode="є" d="M221 92q0 -13 -64 -57t-118 -44q-53 0 -53 36q0 31 29 67h-1q-9 -10 -29 -21v2q0 2 1 4q23 28 82 60t92 32q35 0 35 -28q0 -15 -10.5 -29.5t-24.5 -14.5t-14 14q0 6 8 20t8 21t-10 7q-35 0 -89 -78q27 8 47 8q24 0 24 -14q0 -20 -26 -20v1q4 6 4 9q0 10 -30 10 q-8 0 -24 -2q-21 -32 -21 -49q0 -19 23 -19q41 0 100.5 43l59.5 43h1v-1z"></glyph><glyph glyph-name="guillemotright" unicode="»" d="M217 73q0 -4 -3 -6q-37 -21 -78 -45q-13 -10 -27 -19q-2 0 -3 4q0 8 33 37q28 24 43 33q-19 50 -19 79q0 10 2 10q6 0 6 -7q23 -42 46 -86zM135 72q0 -3 -30 -20q-5 -3 -51 -30q-11 -9 -28 -19q-3 0 -3 4q0 8 34 37q29 25 43 33q-20 52 -20 79q0 10 3 10q2 0 14 -24 q1 -2 21 -37q17 -30 17 -33z"></glyph><glyph glyph-name="afii10104" unicode="ї" d="M255 293q0 -14 -19.5 -28t-34.5 -14q-4 4 -4 18q0 35 44 35q14 0 14 -11zM155 293q0 -14 -19.5 -28t-34.5 -14q-4 4 -4 18q0 35 44 35q14 0 14 -11zM176 98q0 -11 -68 -64q-53 -41 -87 -41q-30 0 -30 23t35 68q29 38 55 59v1q-16 -11 -48 -36q-12 -11 -36 -31 q-6 -4 -10 -4l-1 2q10 23 65 58.5t83 35.5q7 0 12 -2v-2q0 -2 -51 -63.5t-51 -77.5q1 -3 3 -6t6 -3q17 0 63.5 40.5t59.5 43.5v-1z"></glyph><glyph glyph-name="afii10017" unicode="А" d="M2463 916q0 -72 -98 -149q-66 -52 -162 -96q-121 -56 -279 -84q-62 -104 -125 -209q-75 -121 -143 -198q-86 -98 -185 -154q-20 -11 -32 -14v-1q32 -2 86 -2q62 0 103 23q13 7 84 63l2 -1l1 -2q-2 -5 -7 -10q-94 -100 -206 -100q-15 0 -43.5 6.5t-42.5 6.5q-6 0 -33 -4.5 t-41 -4.5q-43 0 -43 21q0 12 35 12q14 0 42.5 -2.5t42.5 -2.5q99 42 208 193q33 46 151 243q31 51 81 127q-90 -11 -145 -11q-106 -110 -213 -217q143 -37 154 -85v-1q-28 32 -169 68q-212 -212 -408 -310q-227 -115 -497 -115q-58 0 -115 9q4 -167 172 -257 q135 -71 319 -71q189 0 328 70q143 73 143 165q0 40 -22 65q-4 3 -9 11q1 1 3 1q18 0 35 -31.5t17 -52.5q0 -95 -153 -168q-149 -71 -342 -71q-198 0 -331 71q-169 90 -170 270q-146 25 -233 101q-101 87 -101 226q0 97 59 187q53 81 142 139q194 127 438 127q152 0 269 -49 q156 -66 156 -196q0 -34 -11 -69q5 0 19 1h20q131 0 238 -22q45 42 207 204q-162 4 -281 53q-167 67 -167 201q0 91 80 146q71 48 166 48q107 0 163 -51q36 -33 36 -61q0 -11 -4 -11q-9 57 -73 86q-52 24 -117 24q-90 0 -155 -46q-72 -51 -72 -138q0 -129 162 -193 q114 -45 270 -49q405 423 681 423q115 0 115 -82zM2451 916q0 37 -33 56q-26 16 -66 16q-166 0 -351 -142q-106 -81 -281 -270q67 2 144 14q95 140 185 233q139 143 241 143q44 0 38 -12l-4 -3l-30 6q-77 0 -160 -81q-48 -47 -117 -146q-58 -84 -86 -129q158 35 266 88 q254 124 254 227zM1153 363q-161 -7 -304 -52q-171 -52 -269 -145v-1q55 -11 105 -11q135 0 263 49q153 59 205 160zM1436 342q-107 23 -240 23q-13 0 -27 -1q-47 -113 -195 -178q-128 -57 -266 -57q-80 0 -142 21q-95 -93 -99 -217q54 -10 116 -10q243 0 468 122 q180 97 385 297zM1176 452q0 117 -161 169q-108 35 -255 35q-216 0 -402 -97q-225 -118 -225 -314q0 -132 99 -216q84 -71 224 -96q4 120 96 221q-134 49 -134 139q0 10 3 27q4 21 9 21q3 0 5 -1q-1 -4 -5 -23q-3 -15 -3 -22q0 -46 50 -83q38 -27 91 -43q101 101 277 158 q148 48 317 55q14 34 14 70z"></glyph><glyph glyph-name="afii10018" unicode="Б" d="M2587 825q-55 -11 -109 -11q-113 0 -247 57q-115 52 -229 104q-137 56 -258 55h-10q-27 -160 -150 -287q-111 -115 -273 -179q-117 -46 -222 -46q-160 0 -160 103q0 66 75 159q-30 51 -30 107q0 105 88 205q79 91 201 150q119 58 221 58q106 0 178 -63q77 -67 72 -171 l3 -1q17 -1 50 -4q74 -8 163 -37q71 -23 203.5 -83t199.5 -82q45 -15 116 -22q101 -9 118 -12zM1843 276q0 -160 -204 -271q88 -47 88 -107q0 -17 -7 -17q-4 0 -4 11q0 62 -88 107q-124 -67 -237 -67q-95 0 -95 34q0 20 42 41q49 24 144 24q67 0 124 -24q77 64 125 143 q55 92 55 180q0 60 -41.5 98t-102.5 38q-6 0 -18 -2t-18 -2l-5 1l-4 4q9 10 50 10q80 0 138 -60t58 -141zM1967 912q0 -17 -33 -28q-23 -7 -65 -29q-75 -54 -221 -261q-101 -151 -203 -301q-170 -244 -348 -347q-169 -98 -391 -98q-206 0 -321 95q-124 18 -204 67 q-106 65 -106 172q0 88 84 134q68 37 166 37q17 0 34 -1q63 83 180 137q114 52 222 52q35 0 99 -7q1 18 8 41q9 32 21 32h1q-1 -5 -11.5 -28.5t-11.5 -46.5q127 -22 188 -97q40 2 85 14q141 37 294 139q132 94 264 189q55 38 93 60q29 14 86 45q19 12 38 25q23 14 42 14 q10 0 10 -9zM1726 1066q-4 93 -88 153q-77 54 -173 54q-168 0 -321 -120q-159 -125 -159 -265q0 -52 26 -102q141 132 332.5 207.5t382.5 72.5zM1719 1028h-25q-157 3 -357 -71q-206 -75 -318 -181q53 -68 159 -68q115 0 222 71q72 48 84 95q2 7 5 7q2 0 2 -4 q0 -46 -80 -107q-70 -53 -125 -68q-41 -11 -90 -11q-123 0 -184 80q-72 -66 -72 -138q0 -54 58 -81q44 -20 105 -20q184 0 415 165q71 51 130 148t71 183zM1866 867v1q-51 -21 -193 -124q-93 -69 -186 -137q-114 -82 -202 -127q-114 -58 -214 -73q26 -39 26 -97 q0 -169 -178 -282q-156 -99 -336 -99q-25 0 -157 11l-1 -2q109 -78 285 -78q312 0 563 286q53 61 167 224q131 189 207 284q124 157 219 213zM1595 1q-33 16 -107 16q-48 0 -89 -7q-67 -13 -67 -41q0 -27 63 -27q100 0 200 59zM1033 433q-54 63 -165 86q6 -46 58 -69 q41 -18 95 -18q6 0 12 1zM1076 313q0 55 -25 92q-4 -1 -32 -1q-151 0 -158 117q-57 8 -98 8q-107 0 -208 -48t-165 -132q111 -16 152 -88q6 -9 12 -27l-3 -5q-2 3 -9 17q-38 73 -157 93q-62 -76 -62 -186q0 -124 90 -198q46 -9 111 -9q231 0 387 99q165 105 165 268z M374 -42v1q-84 78 -84 196q0 108 62 188q-14 1 -28 1q-89 0 -149 -37q-72 -44 -72 -128q0 -92 94 -154q72 -48 177 -67z"></glyph><glyph glyph-name="afii10019" unicode="В" d="M2727 795q0 -125 -126 -201q-108 -65 -243 -65q-85 0 -146 30q-78 39 -78 116q0 55 52 101q50 43 106 43q10 0 10 -4q-54 -2 -100 -44.5t-46 -94.5q0 -68 71 -106q57 -30 131 -30q128 0 226 61q114 71 114 192q0 110 -113 170q-92 49 -212 49q-271 0 -506 -173 q89 -67 89 -170q0 -91 -78 -162q-65 -59 -163 -90q57 -54 57 -127q0 -157 -184 -270q78 -47 78 -102q0 -15 -6 -16l-2 3q-11 71 -80 109q-113 -66 -226 -66q-70 0 -70 39q0 37 68 57q48 14 98 14q60 0 110 -22q70 59 112 133q49 84 49 166q0 52 -23 76q-31 -10 -75 -10 q-88 0 -88 35q0 33 55 33q56 0 114 -40q82 34 143 104q68 78 68 160q0 80 -60 136q-73 -62 -202 -214q-114 -136 -227 -273q-135 -155 -252 -249q20 -57 20 -114q0 -189 -146 -335t-335 -146q-178 0 -273 111q-92 106 -82 286q-107 32 -168 97q-68 73 -68 178 q0 165 151.5 277.5t369.5 112.5q40 0 84 -7q26 24 64 53q400 303 806 303q158 0 252 -55q238 169 527 169q131 0 229 -48q124 -62 124 -180zM1685 422v1q-35 35 -94 35q-46 0 -46 -21q0 -13 31 -21q22 -5 42 -5q28 0 67 11zM1834 846q-78 51 -239 51q-191 0 -374 -71 q-154 -60 -335 -185q-78 -54 -124 -93v-1q221 -53 221 -220q0 -37 -12 -68q131 -32 182 -125q94 87 224 241q177 210 214 250q126 137 243 221zM1548 27v1q-47 18 -95 18q-46 0 -83 -10q-55 -15 -55 -46q0 -32 55 -32q89 0 178 69zM973 332q0 82 -81 134q-63 41 -157 55 q-211 -189 -305 -400q70 -43 164 -41l22 1l1 1q32 88 122 137q82 44 183 44q19 0 37 -2q14 32 14 71zM954 250q-18 2 -38 2q-92 0 -170 -42q-88 -46 -118 -126l1 -1q101 5 186 43q101 46 139 124zM1138 119q-48 97 -171 129q-39 -93 -144 -143q-91 -44 -202 -46 q-5 -15 -5 -45q0 -4 1.5 -11.5t1.5 -10.5t-3 -5q-9 -1 -9 34q0 23 4 38q-112 1 -187 49q-46 -108 -53 -203q82 -24 190 -24q171 0 312 61q129 55 265 177zM697 526q-21 3 -58 3q-204 0 -353 -101q-154 -104 -154 -258q0 -191 226 -261q7 99 51 209q-24 18 -43 46 q-21 32 -21 59q0 5 4 6q13 -58 65 -98q88 215 283 395zM1169 -14q0 45 -15 94q-139 -109 -277 -160q-144 -52 -317 -52q-100 0 -190 24q-1 -8 -1 -33q0 -158 93 -254t251 -96q181 0 320 149q136 146 136 328z"></glyph><glyph glyph-name="afii10020" unicode="Г" d="M2301 883q-48 -13 -95 -13q-97 0 -211 54q-97 51 -194 101q-118 55 -225 54h-5q-39 -183 -187 -319q-81 -74 -186 -122q-115 -52 -216 -52q-134 0 -134 93q0 61 73 160q-18 40 -18 88q0 98 78 198q71 92 181.5 152.5t206.5 60.5q88 0 146.5 -57.5t58.5 -143.5 q0 -13 -2 -26q98 0 235 -59q111 -54 221 -107q23 -12 71.5 -31t201.5 -31zM1768 966q0 -18 -32 -28q-62 -20 -108 -74q-70 -82 -244 -340q-139 -205 -200 -280q-118 -144 -240 -215q-149 -86 -333 -86q-181 0 -273 92q-100 15 -169 62q-88 59 -88 148q0 92 72 141 q62 43 156 43q15 0 30 -1q60 78 160.5 129t198.5 51q45 0 86 -7q0 16 9 42q10 31 20 31q2 0 2 -2q0 -1 -6 -10q-13 -21 -18 -62q108 -22 156 -93q176 10 429 210q57 45 114 91q67 51 119 85q26 14 78 44q17 11 33 22q24 15 35 15q6 0 9.5 -2t3.5 -6zM1565 1116q1 85 -65 141 q-62 53 -149 53q-150 0 -291 -115q-149 -121 -149 -267q0 -44 18 -84q123 121 293 195q180 78 343 72v5zM1557 1078h-9q-146 1 -326.5 -70.5t-286.5 -172.5q45 -67 139 -67q93 0 193 69q64 44 79 91q1 3 4 7q1 -2 1 -5q0 -44 -73 -101q-63 -49 -115 -65q-33 -10 -79 -10 q-106 0 -154 75q-28 -26 -48 -62q-22 -41 -22 -75q0 -48 45 -73q36 -19 89 -19q75 0 186 48q219 95 314 265q53 95 63 165zM1676 921v1q-38 -17 -90 -55l-84 -64l-168 -130q-102 -78 -179 -120q-102 -57 -196 -73q18 -34 18 -82q0 -163 -162 -275q-146 -100 -317 -100 q-17 0 -125 9q91 -78 244 -78q141 0 280 81q122 71 223 193q51 60 159 216q64 92 195 273q114 148 202 204zM929 506q-43 58 -138 81q8 -82 126 -82q8 0 12 1zM960 403q0 43 -19 74q-76 0 -109 17q-48 24 -48 93q-41 11 -84 11q-93 0 -186.5 -49.5t-149.5 -126.5 q95 -14 128 -81q9 -18 9 -26q0 -4 -3 -6q-1 3 -6 15q-28 75 -133 90q-64 -80 -64 -197q0 -106 68 -172q46 -8 105 -8q97 0 181 24q126 35 213 122q98 98 98 220zM331 417q-15 1 -30 1q-80 0 -135 -42q-61 -46 -61 -123q0 -82 73 -139q61 -47 150 -65v1q-62 69 -62 168 q0 114 65 199z"></glyph><glyph glyph-name="afii10021" unicode="Д" d="M2439 757q0 -124 -97 -202q-90 -72 -217 -72q-67 0 -114 31q-55 36 -55 99q0 70 60 115q4 3 13 7l3 -2q-2 -4 -9 -10q-56 -49 -56 -110q0 -55 52 -83q40 -21 101 -21q116 0 207 65q101 72 101 183q0 97 -80 149q-69 44 -171 44q-260 0 -496 -205q45 -96 45 -215 q0 -146 -70 -270t-195 -204q-163 -104 -477 -104q-90 0 -207 12q-6 0 -45 6q-29 4 -46 4q-5 0 -63 -11q-62 -12 -73 -13q-131 -17 -286 -17q-247 0 -247 37q0 48 278 48q107 0 311 -21q90 -10 85 -10q4 0 39 9q135 35 242 110q119 83 281 266q236 267 402 392 q-121 234 -496 234q-165 0 -319 -57q-170 -62 -271 -174q-114 -126 -114 -271q0 -109 68 -173.5t177 -64.5q157 0 287.5 105t130.5 231q0 70 -45 112.5t-115 42.5q-94 0 -169 -64q-79 -68 -79 -160q0 -4 1.5 -9t1.5 -8t-3 -3q-9 0 -9 28q0 95 82 164q79 66 175 66 q86 0 135.5 -50.5t49.5 -135.5q0 -140 -137 -245q-128 -99 -272 -99q-126 0 -205 65q-85 70 -85 193q0 229 229 389q209 146 485 146q157 0 289 -61q148 -67 219 -193q257 189 511 189q110 0 180 -46q82 -54 82 -158zM1700 560q0 92 -31 174q-85 -75 -187 -189 q-88 -100 -175 -200q-240 -274 -584 -362v-1q150 -15 257 -15q68 0 120 6q160 18 299 106t222 224q79 131 79 257zM647 -22v1q-227 28 -354 28q-142 0 -211 -15q-51 -11 -51 -22q0 -5 17 -8q30 -6 120 -6h97q248 0 382 22z"></glyph><glyph glyph-name="afii10022" unicode="Е" d="M1238 775q0 -79 -68 -124q-58 -40 -141 -40q-55 0 -98 19q-52 24 -66 70q-43 -9 -99 -9q-83 0 -162 14q-18 -45 -18 -94q0 -22 4 -41q33 6 60 6q109 0 109 -51q0 -42 -65 -42q-102 0 -141 68q-135 -39 -240 -168q-109 -132 -109 -269q0 -99 53.5 -153.5t151.5 -54.5 q140 0 264 102q57 47 96 107q46 72 46 135q0 59 -43 94q-40 32 -101 32q-93 0 -165 -56q-78 -61 -78 -151q0 -68 71 -68q22 0 61 19v-2l-1 -4q-20 -24 -70 -24q-38 0 -62.5 25.5t-24.5 62.5q0 88 95 152q86 57 178 57q73 0 121 -40q52 -42 52 -114q0 -79 -57 -154 q-66 -88 -172 -138q-102 -48 -215 -48q-111 0 -184 55q-80 61 -80 169q0 152 132 283q118 119 276 161q-11 29 -11 58q0 50 21 95q-130 37 -211 103q-103 83 -103 200q0 107 81 174q76 63 185 63q96 0 177 -54q93 -60 93 -151q0 -15 -5 -16q-3 1 -3 5q0 79 -86 145 q-74 57 -178 57q-101 0 -171 -54q-76 -59 -76 -157q0 -110 103 -192q80 -63 205 -100q55 95 175 149q107 47 227 47q98 0 170 -31q97 -42 97 -127zM1227 774q0 81 -92 120q-67 28 -160 28q-110 0 -207 -50q-105 -54 -154 -145v-1q88 -20 188 -20q23 0 62 6v5q-1 39 28 68 t68 29q40 0 40 -32q0 -54 -124 -80q23 -70 152 -70q74 0 131 33q68 40 68 109zM989 783q0 22 -32 22q-34 0 -58.5 -27t-23.5 -61v-3q114 24 114 69zM747 526q0 40 -98 40q-26 0 -56 -6q18 -68 107 -68q47 0 47 34z"></glyph><glyph glyph-name="afii10024" unicode="Ж" d="M2998 937q0 -107 -99 -205q-81 -80 -197 -129q-126 -53 -268 -53q-115 0 -190 37q-100 48 -100 150q0 132 141 229q128 88 265 88q117 0 182 -58q42 -38 42 -67q0 -5 -4 -26l-4 -3q-1 1 -1 25q0 53 -75 83q-59 24 -120 24q-132 0 -265 -82q-150 -92 -150 -216 q0 -90 94 -132q70 -32 173 -32q109 0 227 38q122 40 205 106q131 104 131 219q0 176 -325 176q-117 0 -243 -39q-211 -65 -429 -240q-173 -138 -345 -356q-209 -265 -209 -416q0 -100 90 -100q76 0 169.5 98.5t93.5 175.5q0 45 -50 45t-109 -61q-45 -46 -65 -125 q-3 -11 -6 -18q-3 2 -3 11q0 65 59 134t123 69q67 0 67 -67q0 -88 -94 -180.5t-182 -92.5q-115 0 -115 120q0 192 317 556q-58 -38 -115 -75q-77 -53 -103 -84q-14 -20 -40 -59l-54 -75q-75 -102 -161 -201q-134 -153 -181 -153q-5 0 -5 8q0 20 37 72q80 111 203 230 q39 35 112 109q31 44 89 124q54 76 132 178q-23 -8 -122 -35q-200 -326 -475 -521h1q11 -4 26 -15q-1 -2 -4 -2q-8 0 -30 12q-248 -171 -525 -171q-178 0 -300 81q-142 93 -142 263q0 191 159 336q156 143 348 143q101 0 185 -48q93 -53 120 -143q101 -52 101 -146 q0 -80 -64 -124q-56 -38 -138 -36q-68 -61 -171 -91q85 -43 202 -43q102 0 163 48q-13 29 -13 70q0 219 346 338q15 5 157 45q129 198 129 318q0 109 -116 109q-88 0 -189 -75q-93 -71 -157 -174q-66 -107 -66 -195q0 -57 33 -77q-2 -2 -4 -2q-21 0 -32 34q-8 24 -8 50 q0 58 31 139q48 125 152 214q115 99 239 99q68 0 108.5 -38.5t40.5 -107.5q0 -115 -99 -278l120 34q202 252 276 252q27 0 27 -28q0 -69 -101 -142q-75 -55 -164 -86q-35 -42 -162 -221h1q40 40 159 117q21 11 55 36q37 40 113 119q194 188 403 285q216 100 407 100 q128 0 216 -40q119 -53 119 -163zM1938 932q0 19 -17 19q-27 0 -115 -99q-59 -66 -107 -130l13 5q18 5 54 23q102 51 144 114q28 42 28 68zM1459 646q-201 -55 -310 -123q-170 -106 -170 -260q0 -28 7 -51q19 17 23 36q2 6 4 42h3q4 1 4 -16q0 -39 -31 -68q8 -21 22 -35 q10 6 64 51q209 174 384 424zM1433 391q-6 -4 -17.5 -10.5t-127.5 -127.5q-200 -207 -200 -252q0 -3 4 -3q23 0 144 148q77 95 142 183q7 9 55 62zM977 449q0 82 -87 129q6 -25 6 -52q0 -126 -104 -227h7q73 -1 123 37q55 42 55 113zM882 525q0 30 -11 61q-57 24 -133 24 q-91 0 -167 -56q-84 -60 -86 -148q9 -5 43 -19q57 -26 115 -52q69 -29 120 -34q119 106 119 224zM755 294q-46 3 -135 32q-68 22 -136 45q5 -108 113 -163q88 28 158 86zM1003 162q-6 7 -23 34q-63 -50 -167 -50q-119 0 -216 48q-61 -14 -111 -14q-75 0 -135 24 q-80 32 -80 95q0 50 44 87q42 34 93 34q31 0 70 -12q6 94 91 158q79 60 177 60q87 0 115 -20q-33 62 -118 92q-66 24 -151 24q-178 0 -335 -123q-168 -131 -168 -304q0 -115 91 -199q125 -116 326 -116q123 0 262 52q133 50 235 130zM583 204q-101 59 -107 169 q-54 10 -77 10q-35 0 -69 -19q-40 -22 -40 -55q0 -55 69 -92q58 -30 119 -30q50 0 105 17z"></glyph><glyph glyph-name="afii10025" unicode="З" d="M1523 837q0 -201 -171 -371q-154 -153 -362 -208q15 -35 15 -74q0 -68 -28 -125q171 -48 279 -133q139 -110 139 -262q0 -140 -109 -227q-102 -81 -246 -81q-124 0 -234 71q-125 80 -125 197q0 20 7 21q3 -5 5 -21q17 -114 128 -186q100 -64 222 -64q132 0 226 71 q103 77 103 205q0 145 -138 253q-105 81 -272 130q-32 -58 -92 -106q-184 -150 -445 -150q-127 0 -224 41q-129 55 -129 165q0 104 91 163q78 52 187 52q72 0 130 -25q72 -31 88 -91q64 11 132 11q109 0 216 -18q25 65 25 122q0 37 -7 55q-46 -8 -79 -8q-52 0 -90 12 q-56 17 -56 56q0 28 31 43q25 11 57 11q135 0 186 -89q182 53 320 217q144 171 144 353q0 128 -71.5 196.5t-200.5 68.5q-173 0 -333 -116q-164 -120 -202 -286q-4 -21 -4 -40q0 -79 58 -124q52 -40 133 -40q121 0 218 74q105 80 105 197q0 90 -94 90q-38 0 -82 -26v3 q0 14 40 26q35 11 54 11q49 0 82.5 -33t33.5 -82q0 -117 -127 -200q-113 -75 -236 -75q-96 0 -160 50q-70 55 -70 149q0 99 76 198q87 113 229 178q136 62 283 62q148 0 241 -69q103 -78 103 -222zM930 264q-23 89 -138 89q-67 0 -67 -42q0 -54 131 -54q40 0 74 7zM555 56v7 q-152 -35 -152 -88q0 -31 43 -31q45 0 78 34.5t31 77.5zM902 46v1q-124 27 -251 27q-19 0 -82 -9q1 -53 -36 -92.5t-91 -39.5q-52 0 -52 41q0 70 164 105q-34 92 -208 92q-94 0 -170 -45q-89 -54 -89 -141q0 -105 123 -156q91 -38 213 -38q145 0 274 65q140 70 205 190z"></glyph><glyph glyph-name="afii10026" unicode="И" d="M1845 1023q0 -12 -10 -24q-18 -22 -61 -58l-66 -54q-95 -82 -371 -354q-347 -342 -347 -474q0 -87 98 -95q52 244 246 368q73 47 133 47q72 0 72 -64q0 -63 -51 -137q-41 -59 -101 -109q-139 -115 -289 -115q-8 -45 -8 -77q0 -34 5 -49l-1 -3q-13 -3 -13 64q0 28 5 65 q-61 2 -97 31q-39 33 -39 92q0 99 132 260q78 96 241 253q194 188 364 328q34 28 103 82q28 20 28 28q0 5 -9 5q-51 0 -298 -217q-188 -166 -291 -272q-124 -127 -357 -384q-87 -96 -160 -146q-85 -58 -150 -58q-71 0 -71 72q0 85 109 217q90 110 224 251q61 63 175 194 q67 85 67 145q0 66 -62 101q-52 30 -122 30q-208 0 -403 -116q-128 -76 -214 -178q-108 -126 -108 -249q0 -72 42 -112.5t114 -40.5q89 0 187 62q78 49 143 125q80 93 80 166q0 46 -29.5 72.5t-75.5 26.5q-31 0 -59.5 -14t-34.5 -14q-1 15 41 27q34 10 55 10 q50 0 82.5 -29.5t32.5 -78.5q0 -127 -139 -247q-135 -116 -285 -116q-75 0 -121 45.5t-46 121.5q0 96 64 199q56 89 141 158q240 193 525 193q92 0 154 -30q81 -39 81 -121q0 -73 -67 -164q-31 -42 -179 -197q-159 -167 -228 -253q-113 -139 -113 -201q0 -43 44 -43 q93 0 253 153q48 47 217 235q190 212 448 442q275 245 345 245q25 0 25 -20zM1528 315q0 56 -64 56q-25 0 -58 -13q-106 -42 -197 -162q-86 -114 -109 -232q103 0 219 76q107 71 168 166q41 64 41 109z"></glyph><glyph glyph-name="afii10027" unicode="Й" d="M1497 1126q0 -18 -85 -82q-62 -47 -128 -47q-85 0 -85 90q0 18 10 35t27 17q39 0 39 -32q0 -24 -11 -37q-8 -8 -33 -21q12 -31 61 -31q38 0 86 30q29 17 72 54q35 29 40 29q7 0 7 -5zM1791 1023q0 -11 -11 -24q-19 -23 -61 -58q-32 -27 -65 -54q-47 -41 -218 -205 q-217 -207 -297 -297q-203 -223 -203 -326q0 -87 98 -95q3 18 16 60q64 202 230 308q73 47 133 47q72 0 72 -64q0 -63 -51 -137q-41 -60 -101 -109q-140 -115 -289 -115q-8 -42 -8 -81q0 -21 5 -45l-1 -3q-13 -3 -13 61q0 31 5 68q-136 5 -136 123q0 103 147 278 q71 85 226 235q204 197 364 328q34 29 103 82q28 20 28 28q0 5 -9 5q-28 0 -104 -58q-262 -200 -485 -431q-162 -169 -357 -384q-184 -204 -310 -204q-71 0 -71 72q0 84 109 217q60 73 268 299q45 47 131 146q67 84 67 146q0 65 -62 101q-52 29 -122 29q-208 0 -404 -116 q-127 -75 -214 -178q-108 -126 -108 -249q0 -72 42 -112.5t114 -40.5q90 0 187 61q83 53 149 134q74 92 74 157q0 46 -29.5 73t-76.5 27q-29 0 -57.5 -14t-34.5 -14q0 15 41 27q35 10 56 10q49 0 81.5 -30t32.5 -79q0 -126 -139 -246q-135 -116 -286 -116q-76 0 -121.5 45.5 t-45.5 121.5q0 96 64 199q56 89 141 158q238 193 526 193q92 0 154 -30q81 -40 81 -122q0 -75 -68 -163q-46 -59 -174 -195q-175 -185 -194 -207q-151 -176 -151 -249q0 -43 44 -43q88 0 218 121q81 75 174 181q152 172 283 302q141 139 284 264q237 206 302 206 q27 0 27 -19zM1474 315q0 56 -64 56q-26 0 -58 -13q-107 -43 -197 -162q-87 -115 -109 -232q103 0 219 76q107 71 167 165q42 66 42 110z"></glyph><glyph glyph-name="afii10028" unicode="К" d="M2564 964q0 -15 -5 -15q-14 81 -111 81q-83 0 -169 -98q-112 -140 -223 -279q-154 -182 -260 -215q23 -29 23 -65q0 -50 -65.5 -151t-65.5 -159q0 -51 38 -71q51 96 132 173q100 95 186 95q69 0 69 -52q0 -78 -114 -164q-106 -80 -211 -80q-28 0 -55 8q-43 -78 -46 -133 q1 -5 -4 -12q-5 5 -5 12q0 55 41 138q-83 32 -83 110q0 53 39 121q7 12 70 108q38 57 38 84q0 16 -9 33q-23 -5 -56 -5q-60 0 -60 28q0 26 45 26q48 0 85 -33q57 22 118 93q52 61 182 226q92 117 158 175q110 98 204 98q39 0 73 -19q41 -22 41 -58zM1997 943q0 -14 -34 -31 q-23 -10 -44.5 -21.5t-92.5 -115.5q-55 -82 -111 -165q-65 -96 -116 -161q-210 -271 -418 -397q-243 -148 -552 -148q-195 0 -335 82q-168 99 -168 282q0 176 178 304q187 134 428 134h14q2 117 111 201q120 93 330 93q120 0 220 -45q128 -57 128 -162q0 -15 -6 -12l-3 4 q0 102 -126 151q-93 37 -214 37q-162 0 -277 -53q-153 -70 -153 -214q140 -4 253 -49q148 -59 174 -169q278 25 530 254q80 73 86 77q64 56 91 65q71 64 100 64q7 0 7 -5zM1767 443v1q-22 26 -62 26q-35 0 -35 -14q0 -18 50 -18q29 0 47 5zM2097 206q0 47 -51 47 q-76 0 -177 -99q-80 -80 -129 -167v-1q18 -8 54 -8q96 0 196 73q107 78 107 155zM1169 487q-26 96 -172 143q-102 32 -235 36l-1 -1q27 -102 170 -147q100 -31 238 -31zM1875 866v1q-13 -5 -41 -29q-58 -53 -115 -106q-69 -63 -121 -98q-223 -151 -412 -171 q0 -159 -166 -254q-140 -81 -312 -81q-100 0 -182 34q-108 44 -108 130q0 32 10 31q1 -1 1 -2q0 -3 -1 -10t-1 -10q0 -83 95 -120q67 -27 165 -27q158 0 305 70q181 86 181 226q0 6 -1 11q-6 0 -19 -1h-20q-127 0 -231 44q-131 56 -154 162h-22q-145 0 -279 -49 q-151 -54 -235 -153q-78 -92 -78 -197q0 -173 167 -269q139 -80 326 -80q280 0 513 152q189 123 388 379q83 107 166 215q98 122 181 202z"></glyph><glyph glyph-name="afii10029" unicode="Л" d="M2585 1034q0 -136 -143 -217q-120 -69 -266 -69q-121 0 -317 42q-163 -156 -296 -334q-187 -250 -187 -393q0 -43 20 -73q23 -35 64 -35q78 0 161 92h36q-92 -105 -198 -105q-59 0 -90 41q-28 37 -28 98q0 152 171 391q114 160 285 334q-23 7 -70 17q-165 -165 -355 -409 q-216 -278 -366 -397q-234 -187 -493 -187q-173 0 -285 82q-126 92 -126 260q0 8 -1 23.5t-1 23.5q0 72 29 154q59 167 212 286q145 112 328 147q37 101 140 166q98 61 209 61q98 0 231 -37q75 -20 239 -79q153 -54 229 -73q141 138 290 245q213 153 329 153q37 0 68 -18.5 t42 -52.5q62 -4 100.5 -40t38.5 -97zM2567 1038q0 56 -45 90q-41 31 -99 31q-137 0 -302 -123q-92 -68 -249 -226q179 -35 322 -35q84 0 159 26q84 29 126 63q52 42 78 117q10 29 10 57zM2435 1172q-21 49 -105 49q-124 0 -317 -143q-131 -97 -271 -241q30 -7 67 -14 q341 349 626 349zM1702 830l-330 108q-206 63 -333 63q-111 0 -202 -48q-94 -49 -150 -142q48 7 95 7q151 0 247 -66q110 -77 110 -222q0 -115 -82 -220q-75 -96 -195 -155.5t-233 -59.5q-94 0 -164 43q-82 51 -82 139q0 13 1 23q2 20 4 20q6 0 6 -6q0 -3 -1.5 -10.5 t-1.5 -11.5q0 -11 3 -28q29 -141 213 -141q106 0 227 54q126 57 205 146q90 99 90 209q0 123 -90 189q-80 58 -208 58q-69 0 -158 -17q-12 -43 -12 -84q0 -94 51 -158q56 -70 148 -70q19 0 38.5 5.5t38.5 11.5q-44 -29 -77 -29q-57 0 -114 36q-98 63 -98 212q0 38 9 71 q-205 -36 -368 -188q-178 -165 -178 -363v-30q0 -93 61 -171q103 -133 314 -133q344 0 626 269q51 49 118 131q54 71 109 141q224 285 363 417z"></glyph><glyph glyph-name="afii10030" unicode="М" d="M3002 854q0 -114 -159 -177q-121 -48 -256 -48q-113 0 -315 35q-156 -124 -293 -277q-193 -215 -193 -335q0 -39 23 -65t62 -26q56 0 101 28q61 38 106 93q54 67 54 127q0 56 -57 56q-56 0 -119 -65q-57 -59 -57 -119q0 -13 -6 -13q-3 0 -3 19q0 64 58 126t121 62 q80 0 80 -78q0 -97 -92 -174q-88 -73 -187 -73q-55 0 -87 30t-32 84q0 220 459 613q-46 10 -70 14q-177 -146 -392 -370q-183 -198 -367 -395q-28 -30 -46 -30q-24 0 -24 27q0 41 80 161q189 284 570 644q-44 7 -67 12q-128 -116 -244 -230q-209 -206 -304 -287 q-181 -156 -344 -235q-200 -96 -403 -96q-192 0 -316 66q-157 85 -157 261q0 169 161 296q188 148 460 162q59 93 203 137q112 34 250 34q220 0 687 -94q249 223 302 223q31 0 31 -25q0 -28 -83 -116q-56 -55 -111 -110l109 -21q145 117 295 206q209 124 323 124 q87 0 110 -58q59 -4 96 -34q43 -33 43 -89zM2988 854q0 58 -47 87q-40 25 -101 25q-137 0 -298 -96q-95 -56 -257 -190q183 -28 322 -28q127 0 236 41q145 56 145 161zM2852 978q-21 40 -105 40q-111 0 -311 -118q-144 -85 -283 -198q23 -4 69 -11q162 131 292 198 q176 89 338 89zM2202 958q0 9 -10 9q-48 0 -287 -217q69 -13 67 -13q57 51 115 101q89 82 115 120zM2123 694l-107 21q-410 -396 -625 -697q-59 -83 -60 -105l3 -5q11 -3 40 28q77 86 234 257q165 176 249 259q141 141 266 242zM1877 745q-391 75 -655 75q-338 0 -455 -142 h11q154 1 268 -51q149 -68 149 -204t-161 -234q-153 -93 -338 -93q-96 0 -177 38q-103 48 -103 132q0 10 3.5 27.5t9.5 14.5l1 -3q-5 -34 -5 -30q0 -84 94 -124q69 -29 166 -29q113 0 225 37q122 40 198.5 111.5t76.5 151.5q0 125 -133 181q-94 39 -241 39q-31 0 -63 -2 q-21 -42 -21 -93q0 -84 65 -136q61 -48 147 -48q8 0 23 4.5t22 4.5l2 -1q-32 -17 -53 -17q-92 0 -153 55q-64 57 -64 147q0 45 16 82q-251 -13 -435 -149q-161 -119 -161 -270q0 -160 156 -235q118 -57 297 -57q263 0 505 137q186 105 414 328t369 353z"></glyph><glyph glyph-name="afii10031" unicode="Н" d="M2931 923q0 -98 -110 -162q-95 -55 -201 -55q-34 0 -71 9q-53 13 -56 36l2 2q7 -6 22 -17q27 -19 98 -19q97 0 187 53q104 62 104 153q0 50 -42 76q-34 22 -88 22q-118 0 -260 -112q-170 -134 -353 -419q-108 -168 -189 -264q-134 -157 -249 -199v-1q78 28 126 28 q59 0 61 -38q28 14 107 76h4l1 -3q-3 -10 -56 -51q-45 -35 -67 -49q-35 -22 -66 -22q27 23 27 44q0 25 -48 25q-50 0 -107 -27.5t-59 -27.5q-10 0 -10 9q0 6 68 33q77 30 181 168q131 186 262 373q158 217 307 334q166 131 319 131q62 0 103 -22q53 -27 53 -84zM2212 953 q0 -8 -10.5 -17.5t-32.5 -22.5q-26 -14 -34 -20q-25 -18 -188 -233q-64 -86 -198 -254q69 -4 127 -20q91 -26 91 -72q0 -5 -2 -10q-28 41 -102 67q-59 20 -123 25q-97 -119 -236 -229q-142 -113 -277 -177q62 -120 232 -120q50 0 83 18q3 2 9 5q1 -1 1 -2q0 -13 -43 -23 q-33 -7 -53 -7q-174 0 -249 118q-267 -125 -591 -125q-197 0 -326 59q-174 80 -174 254q0 139 152 248q185 132 466 132q128 0 229 -41q136 -55 136 -164q0 -126 -140 -191q-108 -50 -251 -50q-79 0 -148 25q-93 33 -93 98q0 17 10 39v-1q0 -4 -2 -10.5t-2 -10.5 q0 -70 88 -102q61 -22 148 -22q125 0 226 48q129 61 129 171q0 106 -123 160q-94 40 -215 40q-266 0 -430 -132q-133 -106 -133 -241q0 -161 156 -237q119 -59 298 -59q299 0 575 140q-15 35 -15 72q0 146 175 245q140 79 330 83q93 112 202 247.5t183 204.5v1 q-284 -198 -389 -255q-244 -134 -439 -134q-59 0 -98 26q-44 31 -44 87q0 11 4 11q3 -13 6 -27q9 -28 34 -45q34 -24 99 -24q111 0 245 41q105 32 218 95q73 41 203 127l129 85q20 12 55 36q90 77 112 77q10 0 10 -7zM1673 395v1q-175 -6 -302 -83q-163 -99 -163 -240 q0 -29 6 -53q247 130 459 375z"></glyph><glyph glyph-name="afii10032" unicode="О" d="M1691 784q0 -226 -206 -476q-190 -230 -416 -328q-2 -8 -5 -25q-33 -143 -150 -244q-121 -104 -265 -104q-152 0 -234 92q-77 88 -77 242q0 90 30 194h-1q-105 34 -172 105q-76 80 -76 182q0 160 132 249q114 77 281 77q110 0 183 -47q143 141 322 234q205 107 380 107 q128 0 200 -64q74 -67 74 -194zM1530 794q0 59 -35 89.5t-94 30.5q-126 0 -310 -156q-138 -117 -248 -262q-59 -77 -104 -175q-51 -111 -58 -194h-1q192 20 374.5 112.5t312.5 235.5q65 71 108 148q55 97 55 171zM1665 812q0 112 -72 169q-65 50 -180 50q-173 0 -370 -107 q-169 -91 -311 -233q44 -29 44 -67q0 -4 -2 -7q-2 1 -4 5q-18 34 -49 57q-231 -240 -324 -532h1q105 -25 200 -25q21 0 43 1v14q-1 35 9 82q42 195 218 391q168 186 361 273q95 43 167 43q146 0 146 -137q0 -106 -106 -248q-86 -115 -193 -200q-258 -204 -564 -235 q0 -163 178 -163q91 0 199 53q3 22 3 38q0 14 -7 37t-7 31q1 1 3 1q12 0 19 -44q5 -34 4 -55q208 110 391 342q203 257 203 466zM703 690q-68 38 -170 38q-159 0 -270 -70q-132 -83 -132 -233q0 -98 76 -173q65 -65 167 -98h1q41 141 132 287q87 140 196 249zM1051 -28 q-99 -40 -187 -40q-201 0 -222 170q-28 -2 -55 -2q-89 0 -195 28h-1q-30 -105 -30 -193q0 -146 69 -229q75 -89 217 -89q148 0 262 106q106 100 142 249z"></glyph><glyph glyph-name="afii10033" unicode="П" d="M2553 881q-15 -15 -108 -15q-160 0 -385 137q-129 79 -303 79q-53 -211 -241.5 -356t-406.5 -145q-158 0 -158 80q0 64 95 176q-29 54 -29 108q0 93 92 193q83 89 204.5 151t211.5 62q68 0 123 -28q60 -31 88 -88q11 -22 17 -62q6 -35 4 -57q145 0 298 -80 q120 -64 284 -125q55 -20 102 -20t112 -10zM1995 796q-44 -31 -130 -133q-73 -86 -203 -259q-250 -330 -250 -426q0 -2 1 -4h5q39 0 240 189l10 -7q-62 -58 -124 -115q-92 -79 -136 -79q-26 0 -26 37q0 20 4 38q30 132 296 478q225 293 293 293q10 0 20 -12zM1971 966 q0 -13 -20 -24q-18 0 -54 -20t-52 -34q-54 -52 -132 -154q-117 -150 -279 -377q-169 -236 -351 -340q-93 -54 -187 -76q-86 -20 -201 -20q-116 0 -163 21q-34 14 -68 29q-37 18 -61 42q-133 12 -228 99q-29 26 -44 68q-13 32 -13 49q0 66 33 104q55 64 160 82q21 3 92 3 q26 34 88 78q148 106 323 106q31 0 79 -7q11 59 34 71l4 -1q-9 -3 -18 -21q-4 -8 -12 -50q48 -7 96 -33q53 -28 76 -65q24 2 82 17q145 39 295 136l266 188q65 44 113 70q18 9 54 28q19 13 39 27q19 11 46 11q3 -3 3 -7zM1751 1115q0 22 -10 51l-18 48q-12 16 -38 44 q-72 68 -179 68q-87 0 -201.5 -57.5t-191.5 -141.5q-85 -94 -85 -184q0 -51 25 -103q312 285 698 275zM1740 1082q-274 0 -562 -167q-73 -43 -119 -82q28 -49 109 -64q30 -6 40 -6q45 0 96 12q46 12 103.5 48t82.5 73q8 12 15 32q3 8 7 7l2 -6q-26 -70 -112.5 -127 t-161.5 -57q-54 0 -105 19q-62 23 -82 62q-27 -24 -53 -67q-28 -48 -28 -77q0 -46 60 -72q47 -21 99 -21q84 0 208 54q108 48 190 109q170 126 211 330zM1873 922q-9 -6 -28 -17q-47 -28 -139 -85q-147 -105 -293 -209q-175 -114 -326 -142q17 -33 17 -80q0 -132 -112 -233 q-92 -83 -235 -126q-92 -27 -215 -27q-17 0 -49.5 3.5t-48.5 3.5q43 -37 120 -59q69 -19 135 -19q147 0 274 59q110 51 229 162q80 74 133 143q33 46 99 139q28 36 85 109q21 30 64 88q22 26 65 79q112 138 225 211zM1053 496q-49 61 -154 85q10 -43 38 -64t61 -21h55z M1088 391q0 38 -22 78q-21 -3 -30 -3q-144 0 -144 116q-37 10 -81 10q-105 0 -201 -45q-44 -20 -51 -24q-29 -15 -47 -30q-24 -20 -82 -78q61 -19 71 -23q38 -17 59 -46q13 -17 15 -26t5 -24h-2q-4 11 -15 34q-22 33 -63 49q-10 4 -78 21q-67 -81 -67 -207q0 -47 20.5 -93.5 t54.5 -76.5q36 -6 116 -6q334 0 486 211q56 76 56 163zM396 404q-29 3 -49 3q-73 0 -133 -42q-66 -47 -66 -117q0 -38 6 -61q8 -26 41 -62q37 -38 75 -57q64 -32 123 -38q-72 67 -72 175q0 51 20.5 108t54.5 91z"></glyph><glyph glyph-name="afii10034" unicode="Р" d="M2504 871q0 -124 -126 -209q-113 -77 -242 -77q-43 0 -44 13l1 2q5 0 22 -3q14 -3 21 -3q120 0 227 79q115 86 115 202q0 87 -84 135q-68 38 -163 38q-204 0 -393 -142q69 -53 69 -142q0 -145 -150 -250q-136 -96 -287 -96q-36 0 -72 11q-170 -207 -302 -320 q12 -35 12 -75q0 -185 -164 -330q-158 -141 -345 -141q-151 0 -240 86.5t-89 237.5q0 25 3 51q-149 76 -149 231q0 123 96 234q86 98 224 163q131 61 251 67q192 153 415 245q245 100 469 100q149 0 242 -59q214 140 413 140q102 0 178 -42q92 -52 92 -146zM1863 786 q0 64 -41 108q-107 -82 -222 -214q-34 -39 -195 -241q30 -10 70 -10q96 0 186 54q83 51 140 135q62 92 62 168zM1807 909q-86 58 -232 58q-207 0 -442 -101q-201 -88 -392 -234v-1q96 -4 165 -45q85 -51 85 -138q0 -99 -93 -187q123 -19 178 -111q114 107 272 305 q-52 38 -52 98q0 41 21.5 80t56.5 60q21 13 29 13q1 -1 4 -2q-25 -18 -50 -37q-49 -47 -49 -112q0 -57 47 -91q223 287 452 445zM871 255q-4 1 -21 1q-50 0 -114 -16q-86 -20 -86 -53q0 -21 38 -21q92 0 183 89zM1058 133q-49 104 -167 120q-43 -39 -96 -66 q-61 -30 -111 -30q-53 0 -53 27q0 15 22 33q59 47 223 47q87 87 87 183q0 82 -77 131q-66 42 -154 43q-172 -137 -285 -297q-134 -189 -158 -376q96 -50 229 -50q283 0 540 235zM685 621v1q-190 -13 -352 -144q-177 -142 -177 -324q0 -127 118 -198q24 185 144 369 q106 161 267 296zM1078 37q0 26 -6 54q-254 -204 -558 -204q-128 0 -226 44q-2 -23 -2 -46q0 -145 84.5 -228t229.5 -83q177 0 327.5 143t150.5 320z"></glyph><glyph glyph-name="afii10035" unicode="С" d="M1438 848q0 -107 -117 -186q-105 -71 -218 -71q-95 0 -127 51q-82 -59 -199 -90q-106 -28 -217 -28q-53 0 -101 9q-181 -230 -181 -415q0 -106 57 -164t163 -58q87 0 174 46q79 41 143 111q111 121 111 224q0 55 -33.5 84.5t-88.5 29.5q-89 0 -178 -79t-89 -166 q0 -90 80 -90q53 0 86 31q1 -2 1 -4q0 -13 -36 -26q-32 -12 -49 -12q-95 0 -95 108q0 99 92 176q87 73 188 73q149 0 149 -139q0 -151 -154 -269q-144 -111 -299 -111q-124 0 -195 56q-79 63 -79 183q0 198 177 429q-79 28 -125 84q-51 60 -51 140q0 121 96 198 q89 72 213 72q64 0 122 -24q71 -31 84 -83q3 -5 3 -10t-3 -8q-3 1 -4 5q-17 55 -83 83q-52 22 -120 22q-116 0 -202 -66q-93 -72 -93 -186q0 -150 179 -207q140 167 366 287q239 127 444 127q83 0 138 -26q71 -36 71 -111zM1044 738q0 13 -12 13q-20 0 -37 -22.5t-17 -43.5 q0 -14 4 -24q62 45 62 77zM1417 856q0 64 -58 95q-46 24 -116 24q-278 0 -559 -222q-129 -101 -206 -196q42 -6 86 -6q104 0 210 26q118 28 196 78q-4 9 -4 26q0 27 21.5 53.5t47.5 26.5q19 0 19 -23q0 -37 -68 -89q23 -35 87 -35q115 0 229.5 81t114.5 161z"></glyph><glyph glyph-name="afii10036" unicode="Т" d="M2541 890q-58 -15 -115 -15q-170 0 -389 136q-129 81 -305 81q-46 -208 -242 -358t-411 -150q-159 0 -159 81q0 64 96 177q-27 53 -27 107q0 94 91 195q82 91 203.5 154t213.5 63q47 0 97 -17q55 -19 84 -50q38 -42 54 -110q3 -11 3 -61h11q136 2 286 -77 q147 -78 283 -125q58 -21 106 -21q22 0 60 -5q43 -5 60 -5zM2079 804q-47 -33 -134 -135q-70 -82 -206 -261q-252 -331 -250 -423v-8l4 -3q8 0 30 13q16 10 117 95q96 82 99 82q4 0 7 -4q-62 -58 -123 -117q-92 -79 -137 -79q-33 0 -33 32q0 65 131 272q124 197 264 363 q153 182 206 182q8 0 25 -9zM1912 848q0 -16 -29 -54q-69 -88 -205 -264q-131 -175 -391 -524q-10 -14 -16 -14q-4 0 -6 1t-2 7q0 20 445 624q172 232 199 232q5 0 5 -8zM1948 970l-7 -12q-15 -8 -47 -24q1 -1 1 0h-2h2q-16 -5 -46 -17q-6 -3 -28 -23q-5 -5 -27 -25 q-11 -9 -38 -42q-84 -102 -125 -158q-50 -64 -145 -197q-88 -136 -191 -251q-126 -139 -238 -202q-91 -51 -170 -73q-83 -24 -183 -24q-111 0 -178 15q-98 21 -158 79q-146 13 -229 96q-28 28 -45 72q-11 30 -11 49q0 105 96 154q78 41 189 33q60 84 187 137q116 48 228 48 q31 0 79 -7q7 61 34 72h4q-28 -20 -28 -75q116 -24 172 -93q55 0 167 45q27 9 79 31q63 31 223 140q60 41 178 124q102 74 168 103q13 11 42 24t44 13q3 -7 3 -12zM1725 1123q0 95 -77 155q-71 56 -169 56q-88 0 -203 -56.5t-192 -140.5q-86 -94 -86 -184q0 -52 25 -104 q318 291 702 274zM1719 1088l-16 1q-256 1 -553 -168q-76 -43 -120 -83q23 -45 110 -65q16 -4 40 -4q4 0 14 1h14q66 0 183 70q64 38 95 101q3 -2 3 -7q0 -20 -36 -59q-29 -30 -55 -49q-102 -73 -187 -73q-139 0 -188 82q-27 -25 -53 -69q-29 -49 -29 -79q0 -45 61 -71 q48 -20 100 -20q58 0 127 23q295 100 416 300q59 97 74 169zM1849 927v4q-99 -52 -329 -223q-126 -93 -219 -143q-123 -67 -244 -90q18 -44 18 -84q0 -133 -113 -234q-95 -85 -237 -124q-100 -27 -243 -27q8 0 -80 7l1 -2q118 -78 290 -78q155 0 330 103q155 92 281 264 q24 33 55 72q43 59 133 175q15 17 33 45q39 58 101 126q70 78 105 112q59 58 118 97zM1023 502q-52 60 -151 79q0 -31 35 -56q32 -23 65 -23h51zM1058 392q0 41 -18 80q-90 0 -113 12q-15 3 -33.5 23.5t-21.5 36.5q-10 14 -10 39q-61 12 -79 12q-101 0 -212 -48 q-120 -53 -172 -130q48 -10 91 -35q54 -33 54 -73q0 -5 -1 -9q-2 12 -12 36q-9 12 -19 23q-2 1 -15 10q-48 29 -105 38q-32 -40 -44.5 -67t-21.5 -77q-7 -40 -7 -66q0 -106 77 -171q34 -7 84 -7q146 0 235 24q137 37 231 121q112 100 112 228zM362 410q-11 1 -24 1 q-134 0 -196 -80q-31 -40 -31 -90q0 -52 27 -93q6 -7 17 -20q6 -8 19 -23q51 -44 184 -75v3q-71 65 -71 161q0 22 8 72q17 94 67 144z"></glyph><glyph glyph-name="afii10037" unicode="У" d="M2376 1024q0 -14 -40 -44q-44 -33 -103 -78q-346 -265 -783 -795q-381 -463 -588 -806q-108 -178 -108 -223q0 -15 10 -15q16 0 62 60q17 21 226 318q101 143 246 320q157 192 257 292q48 48 54 48q3 0 3 -1q0 -4 -35 -38q-47 -45 -99 -105q-205 -235 -567 -738 q-124 -172 -154 -172q-38 0 -38 42q0 62 100 229q186 310 437 625q273 341 446 527q262 280 513 461l74 48q59 38 59 47q0 4 -14 4q-25 0 -82 -34q-149 -88 -408 -328q-86 -80 -196 -193q-252 -260 -290 -297q-233 -222 -311 -222q-34 0 -52 22t-18 57q0 93 163 280 q151 164 303 328q163 188 163 285q0 61 -67 89q-49 21 -119 21q-180 0 -369 -103q-176 -97 -296 -246v-1q202 105 375 105q67 0 110 -25q53 -31 53 -93q0 -60 -49 -129q-69 -98 -182 -156t-234 -58q-75 0 -122 36q-51 40 -51 113q0 77 58 168v1q-152 -97 -274 -223 q-151 -156 -185 -291q92 67 167 67q98 0 98 -83q0 -70 -50.5 -118.5t-120.5 -48.5q-53 0 -85 34t-32 87q0 5 1 15t1 15q-78 -73 -129 -159q-60 -103 -60 -193q0 -93 64 -119q17 -7 33 -3l2 -1q4 -8 -28 -8q-44 0 -71 44q-24 38 -24 85q0 101 68 208q57 89 148 166 q31 160 191 323q128 131 304 232q53 75 171 170q109 89 244 143q144 59 274 59q87 0 147 -27q79 -37 79 -113q0 -123 -193 -332l-179 -194q-119 -129 -158 -176q-110 -137 -110 -197q0 -43 43 -43q69 0 279 199q26 25 246 250q164 168 260 257q211 196 375 305q94 62 139 62 q28 0 28 -18zM1278 676q0 57 -50 85q-39 23 -101 23q-176 0 -393 -124q-68 -98 -68 -180q0 -68 49 -105q44 -33 114 -33q92 0 200 58q85 46 157 115q92 89 92 161zM504 120q0 73 -82 73q-81 0 -173 -77q-4 -22 -4 -43q0 -47 27 -78t73 -31q59 0 109 48.5t50 107.5z"></glyph><glyph glyph-name="afii10038" unicode="Ф" d="M2473 790q0 -66 -39 -145q-57 -115 -213 -208q95 -59 95 -133q0 -15 -7 -15l-1 1q-2 4 -2 12q0 38 -32 76q-28 32 -66 52q-115 -69 -263 -69q-54 0 -75 16q-8 3 -13 19q0 25 45 50q36 19 70.5 26t90.5 7q59 0 138 -31q84 69 138 168q58 107 58 209q0 57 -18 92.5 t-65 60.5q-14 8 -41 19q-17 4 -33 4q-9 0 -25 -3.5t-17 -3.5q-4 0 -5 3q18 16 60 16q39 0 77 -22q13 -7 39 -23q104 -74 104 -178zM2444 1191q-4 -7 -105 -63q-109 -59 -177 -138q-92 -105 -269 -355q-164 -231 -276 -350q-192 -205 -429 -290q-115 -42 -269 -42 q-89 0 -164 18q-79 18 -128 48q-78 -21 -167 -21q-82 0 -141 11q-90 16 -148 63q-70 56 -70 140q0 129 142 185q17 7 50 16l22 1l-6 -4q-17 -1 -65 -20q-53 -20 -83.5 -70.5t-30.5 -108.5q0 -102 106 -158q86 -46 198 -46q107 0 180 22q-52 33 -82 89.5t-30 118.5 q0 80 52 161q49 74 123 119q130 80 272 94q34 3 78 3q48 0 99 -4l10 28q-47 33 -79 90t-32 112q0 79 83 130q71 45 156 45q68 0 131 -25q1 0 29 -17q143 92 311 125q82 17 104 17q74 0 100 -7q141 -38 141 -166q20 21 62 62q78 77 193 138q14 7 57 27q47 22 52 22zM1975 950 q0 34 -29 55t-64 21q-127 0 -314 -164q-86 -75 -127 -126q-68 -82 -79 -157q17 -2 36 -2q137 0 282 64q153 67 232 169q63 81 63 140zM2188 441v3q-82 17 -118 17q-51 0 -100 -10q-71 -15 -71 -45q0 -18 27 -28q20 -6 42 -6q108 0 220 69zM2061 954q0 35 -4 50q-9 31 -40 59 q-22 20 -71 33q-42 10 -80 10q-63 0 -146 -23q-78 -21 -139 -51q-42 -22 -127 -83q20 -21 19 -46v-12l-3 2l-1 12q-3 3 -9 18q-4 10 -16 19q-179 -147 -256 -318q72 -42 147 -42q1 24 17 63q29 68 82 136t111 111q14 9 40 26q173 117 282 117q113 0 113 -92q0 -62 -61 -136 q-90 -110 -234 -177t-288 -67q-20 0 -39 2q-4 -16 -4 -32q0 -45 31 -69.5t77 -24.5q68 0 126 12q5 44 5 38q0 6 -1 16.5t-1 14.5l7 -3q3 -4 3 -37q0 -17 -3 -26q61 20 154 80q13 8 29 21q2 2 27 35q61 84 122 167q72 96 130 161q0 5 1 18v18zM1412 964q-47 40 -168 40 q-29 0 -86 -21q-52 -19 -86 -55q-40 -41 -40 -91q0 -52 32.5 -106t77.5 -83q4 12 10 24q91 178 260 292zM1581 434q-39 -11 -78 -11q-168 0 -168 142q-98 9 -154 48h-3l-6 -17q73 -20 116 -65q47 -50 47 -121q0 -97 -78 -156q18 -14 86 -14q84 0 150 57q62 53 88 137z M1309 410q0 61 -41 110q-39 46 -100 66q-31 -92 -31 -163q0 -123 107 -162q65 69 65 149zM1752 517q-25 -16 -76 -45q-26 -15 -84 -37q-70 -211 -248 -211q-67 0 -97 20l-18 -15q-51 -37 -103 -51q-77 -21 -115 -21q-60 0 -93 25l-2 -3q-43 -53 -122 -95q-71 -39 -145 -55 q87 -65 270 -65q98 0 174 20q73 20 154 66q289 163 505 467zM1231 251q-125 58 -125 240q0 54 16 105q-44 11 -103 11q-180 0 -323 -101q-158 -111 -158 -273q0 -117 102 -200q181 52 269 152q-17 9 -32 34t-15 45q0 65 31 80q14 7 23 7q47 0 47 -59q0 -53 -37 -104 q49 -17 88 -17q50 0 106 18t94 48q6 4 17 14zM949 287q0 53 -30 53q-23 0 -35 -26q-10 -21 -10 -47q0 -44 45 -75q30 49 30 95z"></glyph><glyph glyph-name="afii10039" unicode="Х" d="M3123 844q0 -79 -45 -152q-77 -124 -245 -195q-148 -62 -311 -62q-129 0 -216 37q-120 52 -120 163q0 131 150 220q130 77 271 77q127 0 204 -57q52 -38 52 -74q0 -15 -6 -22q-3 13 -10 39q-15 46 -92 72q-60 21 -120 21q-20 0 -42 -2q-132 -11 -250 -80 q-145 -83 -145 -199q0 -98 109 -142q78 -32 192 -32q127 0 246 34q131 37 223 106q144 108 144 246q0 247 -412 247q-310 0 -615 -205q-255 -172 -472 -459q-166 -220 -166 -352q0 -117 108 -117q81 0 173 90.5t92 170.5q0 52 -60 52q-62 0 -116 -61q-49 -57 -59 -121 q-1 -7 -4 -20q-5 0 -5 8q0 73 54.5 138.5t125.5 65.5q81 0 81 -73q0 -90 -93.5 -176t-184.5 -86q-137 0 -137 137q0 145 171 371q374 493 821 623q152 44 287 44q168 0 277 -54q145 -71 145 -221zM1765 885q0 -107 -102 -279t-249 -319q-153 -151 -323 -242 q-259 -138 -544 -138q-171 0 -284 64q-139 80 -139 239q0 173 172 292q168 116 380 120h28q133 3 237 -47q132 -64 132 -184q0 -134 -151 -216q-126 -68 -273 -68q-89 0 -165 34q-96 43 -96 122q0 12 4 29q5 22 13 22l4 -1q1 -1 1 -2l-6 -15.5t-6 -25.5q0 -74 85 -112 q64 -28 148 -28q165 0 298.5 77t133.5 184q0 106 -130 157q-94 38 -220 38q-232 0 -405 -109.5t-173 -264.5q0 -151 136 -227q110 -63 273 -63q280 0 566 186q251 162 438 415q179 242 179 390q0 62 -37 94t-101 32q-138 0 -275.5 -143t-137.5 -282q0 -50 29 -77q1 -1 9 -5 t8 -5q0 -3 -9 -3q-24 0 -38 39q-11 30 -11 59q0 159 130 293.5t288 134.5q84 0 132 -40q51 -43 51 -125z"></glyph><glyph glyph-name="afii10040" unicode="Ц" d="M1792 1022q0 -9 -9 -28q-11 -10 -33 -31q-32 -25 -95 -76q-26 -25 -80 -75q-3 -3 -291 -281q-102 -98 -192 -200q-40 -46 -53 -61q-30 -37 -47 -66q-62 -103 -62 -147q0 -32 18 -57q19 -29 50 -29q27 0 86 31q56 29 79 51q6 7 18 17q4 -5 3 -10l-10 -41q-5 -20 -36 -71 l-9 -15q-1 -2 -34 -44q-38 -49 -102 -99t-111 -70q-45 -74 -142 -136q-102 -66 -184 -66h-13q-24 0 -52 17l3 2q2 0 5 -1q26 -14 39 -14q6 0 28 4q55 10 141 54q26 13 48 27q53 34 103 101h-4q-1 -1 -3 -1q-3 -3 -18 -9q-35 -14 -68 -14q-43 0 -68 26q-7 13 -7 28 q0 36 50 65q44 24 84 24q26 0 46 -13.5t20 -38.5v-12q0 -20 -8 -33q86 44 162 132q72 82 113 178q-108 -82 -163 -82q-47 0 -74.5 34t-27.5 82q0 78 78 186q31 43 135 161q51 57 165 165q31 32 96 96q95 88 326 281q1 1 43 30q32 22 38 33q-5 2 -19 2q-24 0 -65 -32l-15 -9 q-70 -49 -246 -206q-44 -38 -131 -116q-45 -40 -134 -124q-152 -158 -271 -295q-145 -168 -244 -237q-78 -55 -163 -55q-23 0 -33 13q-9 3 -19 22q0 5 -2 15.5t-2 15.5q0 81 83 186l27 33q33 47 63 78q15 14 43 42q95 99 165 178q48 53 96 105q55 63 82 115q18 33 18 69 q0 54 -56 91q-50 33 -107 33q-141 0 -255.5 -37t-232.5 -118q-21 -13 -60 -41q-26 -21 -83 -86q-121 -140 -121 -254q0 -74 41 -116t115 -42q87 0 188 61q93 55 152 131q73 95 73 150q0 52 -29.5 80t-81.5 28q-55 0 -94 -32l2 7q45 35 92 35q124 0 124 -130q0 -15 -18 -60 q-17 -41 -27 -57q-63 -96 -164 -158q-108 -65 -217 -65q-73 0 -120.5 43t-47.5 115q0 88 54 188q112 204 406 323q118 48 281 48q52 0 109 -18q67 -20 94 -54q24 -30 24 -76q0 -45 -14 -78q-28 -67 -134 -175q-56 -64 -172 -189q-124 -128 -160 -172q-107 -127 -107 -192 q0 -41 44 -41q60 0 141 55q25 16 76 65q72 69 254 268q233 255 446 439q54 48 108 97q64 56 115 88q32 23 79 48q17 14 52 14q17 -6 17 -20zM878 -232q0 31 -13 38q-22 12 -39 11q-26 -1 -47 -9t-42 -17q-37 -37 -37 -53q0 -17 15.5 -30t32.5 -13q6 -2 17 -2q41 0 96 27 q17 21 17 48z"></glyph><glyph glyph-name="afii10041" unicode="Ч" d="M1525 1024q-12 -27 -61 -71q-38 -31 -76 -63q-86 -74 -227 -212q-91 -87 -182 -175q-134 -135 -209 -233q-100 -132 -100 -207q0 -39 28 -65.5t68 -30.5q12 48 33 103q2 6 8 20q10 22 34 62q33 47 47 65q29 36 56 58q117 96 205 96q68 0 68 -62q0 -96 -101 -193 q-84 -81 -189 -125q-75 -31 -151 -31q0 -9 -3.5 -27t-3.5 -27q0 -52 7 -72q-4 -5 -6 -5q-11 0 -11 77q0 15 7 54q-61 0 -97 30.5t-36 89.5q0 93 126 260q14 15 41 44q40 46 123 134q122 118 366 331q43 41 133 117q16 13 48 37q9 6 17.5 12t10.5 16q-4 3 -11 3 q-28 0 -102 -58q-36 -27 -106 -82q-94 -78 -234 -217q-177 -177 -228 -224q-24 -23 -75 -65q-79 -58 -148 -58q-13 0 -36.5 10.5t-27.5 20.5q-10 13 -10 40q0 73 87 186q33 43 177 201q109 120 139 181q14 29 14 61q0 60 -51 97q-46 34 -109 34q-85 0 -162 -14 q-146 -27 -259 -99q-144 -92 -204.5 -166.5t-84.5 -123.5q-33 -67 -33 -145q0 -66 43.5 -104.5t110.5 -38.5q107 0 224 86q105 77 162 181q23 40 23 82t-27.5 71t-69.5 29q-62 0 -86 -22q-10 -3 -14 -7l-3 5l6 4q48 29 82 29q57 0 90.5 -30.5t33.5 -86.5q0 -57 -45 -129 q-61 -97 -161 -158q-105 -64 -215 -64q-48 0 -89 21q-45 23 -65 64q-17 36 -17 72q0 35 18 95.5t37 92.5q63 106 150 178q103 84 253 143q121 48 281 48q136 0 198 -72q27 -31 27 -65q0 -82 -65 -173q-34 -48 -126 -143q-112 -114 -181 -210q-59 -80 -59 -127q0 -17 14 -29 t31 -12q34 0 68 14q48 19 108 72q131 115 267 256q127 133 234 219q18 14 55 41q16 14 51 40q12 7 34 24q11 8 34 21h-1v0q17 10 29 9q5 6 12 6q38 0 39 -21zM1207 309q0 55 -62 55q-111 0 -253 -164q-28 -33 -68 -113q-21 -42 -28 -59q-16 -38 -16 -61q29 0 65 13 q24 5 71 21q50 23 74 36q40 23 67 46q22 25 61 59q89 114 89 167z"></glyph><glyph glyph-name="afii10042" unicode="Ш" d="M2158 1022q0 -10 -10 -24q-7 -8 -37 -33.5t-90 -75.5q-68 -58 -169 -158q-119 -116 -356 -350q-9 -9 -73 -90q-123 -157 -123 -233q0 -90 99 -96q3 18 11 53q5 12 15 35q14 34 46 97q53 82 103 124q118 96 203 96q72 0 72 -62q0 -112 -151 -240q-54 -46 -141 -83 q-64 -27 -147 -27q-11 -56 -11 -59q0 -37 7 -68l2 -3h-6q-2 0 -6 17q-6 25 -6 36q0 37 6 77q-30 0 -48 7q-20 1 -42 17q-47 34 -47 96q0 95 129 255q67 84 205 220q64 57 187 174q86 84 220 192q18 16 55 47q16 12 48 35q27 22 27 28q0 7 -10 7q-14 0 -53 -24 q-34 -20 -51 -35q-35 -27 -105 -82q-52 -42 -125 -111q-115 -109 -122 -116q-46 -39 -134 -123l-186 -192q-35 -37 -89 -102q-42 -50 -123 -132q-44 -43 -58 -56q-33 -31 -62 -50q-46 -30 -70 -40q-36 -15 -78 -15q-32 0 -52 18.5t-20 50.5q0 75 110 216q158 202 418 439 q31 30 93 89q31 27 93 79q58 53 182 151q27 20 27 28t-19 8q-4 0 -6 -3q-9 -3 -23 -12q-146 -98 -422 -354q-155 -143 -312 -315q-56 -66 -172 -193q-39 -41 -124 -118q-55 -43 -87 -59q-49 -25 -101 -25q-28 0 -49 15q-24 17 -24 43q0 115 179 306q13 15 40 46 q40 40 118 122q59 62 172 192q20 25 55 79q14 31 14 63q0 49 -46 90l-17 14q-18 12 -63 23q-24 6 -57 6q-137 0 -278 -55q-167 -66 -295 -189q-154 -148 -154 -302q0 -72 42.5 -111.5t115.5 -39.5q61 0 142 39q74 37 122 85l69 68q24 25 51 72q22 40 22 87q0 99 -111 99 q-17 0 -72 -19q-6 -5 -15 -9q-1 1 -1 3q0 5 15 13q10 4 20 9q43 14 63 14q25 0 52 -12t41 -30q23 -32 23 -64l-3 -26q-5 -51 -44 -113q-61 -96 -162 -159q-108 -67 -216 -67q-112 0 -151 89q-17 39 -17 69q0 38 14 89q26 97 106 192q104 124 273.5 201t332.5 77 q154 0 211 -69q27 -33 27 -68q0 -100 -61 -175q-26 -31 -181 -192.5t-230 -253.5q-114 -139 -114 -196q0 -41 44 -41q68 0 141 55q82 62 175 158q37 39 158 175q144 162 319 322q40 41 124 119q20 17 61 51q55 48 168 136q12 7 35 21q18 13 58 35l17 3h5q30 0 30 -22 q0 -9 -10.5 -23t-59.5 -55q-34 -28 -68 -55q-64 -55 -168 -158q-120 -115 -353 -350q-29 -27 -76 -84l1 1l-3 -2l2 1q-22 -29 -66 -85q-119 -137 -119 -202q0 -41 48 -41q58 0 137 55q18 12 117 104q47 44 109 112q52 58 104 117q240 263 569 545q65 56 103 83q9 6 26 19 q6 3 12 7q45 32 93 32q17 -6 17 -21zM1839 305q0 55 -65 55q-25 0 -55 -14q-26 -11 -69 -34q-28 -15 -65 -52q-22 -20 -62 -65q-89 -114 -113 -233q25 0 65 10q203 52 323 223q41 59 41 110z"></glyph><glyph glyph-name="afii10043" unicode="Щ" d="M2150 1027q0 -13 -10 -24q-12 -14 -34 -35q-16 -11 -45 -35q-109 -97 -217 -202q-99 -96 -199 -191q-153 -151 -238 -259q-116 -145 -116 -220q0 -84 71 -84q64 0 147 66q16 15 33 29q4 0 4 -11q0 -22 -31 -79q-8 -15 -24 -44q-9 -16 -35 -45q-82 -94 -170 -146 q-19 -11 -57 -30l-1 -4q-18 -27 -60 -74q-143 -119 -268 -119q-29 0 -42 12l-6 9v1l3 4h3l5 -6q1 -2 6 -4q14 -10 32 -10q82 0 158 50q14 8 43 25q12 8 55 41q26 20 61 72l-6 -3h-1q1 1 2 1h-1q-47 -19 -99 -19q-20 0 -38 8q-28 12 -28 37q0 19 14.5 36.5t53.5 35.5t64 18 q32 0 50 -17t18 -38t-14 -43q94 44 171 130q73 83 114 184q-93 -83 -169 -83q-44 0 -71.5 35t-27.5 79t17 82q64 145 327 401q117 115 398 362l72 56q57 46 59 54q-3 3 -7 3q-12 0 -17 -3q-61 -23 -193 -137q-155 -135 -254 -224l-127 -127q-57 -55 -141 -145 q-113 -123 -137 -149q-28 -28 -83 -87q-59 -66 -158 -148q-29 -24 -72 -41t-79 -17q-4 0 -12 1.5t-12 1.5q-48 22 -48 69q0 63 70 161q58 73 115 145q26 32 79 92q56 54 165 162l96 96q33 28 97 86q29 28 89 82l82 69l72 56q59 47 59 54q0 4 -6 4q-36 0 -107 -59 q-35 -27 -103 -82q-287 -235 -567 -547l-120 -129q-19 -18 -56 -56q-84 -93 -137 -134q-93 -72 -172 -72q-36 0 -55 20q-17 17 -17 52q0 102 220 337q37 42 113 127l152 156q96 110 96 184q0 33 -22 59.5t-73.5 47t-90.5 20.5q-159 0 -332 -82t-279 -203q-34 -39 -66 -90 q-18 -30 -37 -92q-18 -57 -18 -84q0 -71 43.5 -110.5t114.5 -39.5q57 0 93 14q90 34 170.5 102.5t125.5 151.5q24 44 24 64q0 63 -26 92.5t-88 29.5q-12 0 -41 -7q-15 -6 -43 -21h-2v2q4 10 41 23q33 12 45 12q30 0 63 -11q27 -9 44.5 -41.5t17.5 -62.5q0 -59 -42 -132 q-55 -93 -164 -159q-112 -67 -218 -67q-61 0 -116 41q-3 1 -15 11q-36 37 -38 123v7q-1 76 53 165q105 172 297 274q187 100 393 100q51 0 109 -18q66 -22 94 -54q25 -29 25 -83q0 -77 -92 -189l-150 -164l-79 -79q-271 -278 -271 -371q0 -19 13 -30.5t32 -11.5q28 0 72 18 t69 37q137 109 333 334q54 62 189 199q128 130 374 347q37 27 110 83q34 27 62 41q42 19 62 19q7 0 14 -6.5t7 -12.5q0 -11 -11 -24q-20 -26 -61 -59q-56 -46 -66 -55q-209 -196 -371 -354q-23 -25 -72 -75q-27 -26 -79 -79q-27 -27 -74 -85l1 1l-2 -2q1 0 1 1 q-57 -68 -113 -137q-74 -97 -74 -149q0 -18 17 -35q19 -7 27 -7q31 0 73 17.5t68 37.5q111 90 330 334q39 43 192 199q57 58 131 124q40 41 124 120q56 50 230 185q20 16 54 35q40 22 56 24q10 4 17 3q17 -6 17 -20zM1237 -222q0 19 -17.5 31.5t-37.5 12.5q-8 0 -22 -3.5 t-20 -4.5q-79 -39 -79 -72q0 -17 7 -28q22 -14 38 -14q56 0 79 8q11 1 17 6q7 2 17 7q18 22 18 57z"></glyph><glyph glyph-name="afii10047" unicode="Э" d="M1447 1022h-8q-13 0 -38.5 6t-38.5 6q-46 0 -69 -3q-153 -20 -291 -140q-150 -129 -150 -275q0 -41 17 -82q10 -22 17 -32q25 -34 71 -53q43 -19 87 -19q99 0 161 51l16 17q13 12 16 12q1 0 1 -2q-4 -5 -8 -12q-72 -79 -193 -79q-133 0 -191 101q-23 41 -23 93 q0 91 77 194q113 150 289 213q80 29 148 29q22 0 59 -6q46 -9 51 -19zM1501 828q0 -141 -164 -363q-36 -49 -53 -70q-30 -38 -57 -65q39 -22 62 -36q48 -29 51 -39q-1 -3 -7 -3q-2 0 -54 33q-56 35 -62 38q-180 -193 -375 -282q-201 -90 -460 -90q-29 0 -89 11 q-74 13 -129 41q-123 61 -123 191q0 47 22 101q20 51 50 88q47 59 136 105q81 43 162.5 58.5t123.5 15.5q59 0 125 -11q79 -13 117 -36q53 -32 77 -63q30 -40 30 -94q0 -88 -77 -154q-63 -54 -159 -82q-53 -16 -138 -16q-140 0 -205 73q-28 32 -28 66q0 32 19 44h4 q-14 -21 -14 -47q0 -24 25 -57q46 -60 183 -60q74 0 141 16q53 12 115 48q66 39 97 79t31 96q0 88 -123 134q-90 34 -198 34q-168 0 -323 -83q-184 -98 -184 -251q0 -233 394 -233q142 0 305 72q140 61 270 164v3q-47 1 -85 25q-44 29 -44 72q0 42 47 64q35 16 83 16 q93 0 163 -29l47 47q17 18 39 49q18 26 36 51q80 107 110 163q51 97 51 187q0 49 -32.5 77.5t-82.5 28.5q-105 0 -211 -87q-98 -82 -137 -186q-27 -75 -27 -103q0 -13 9 -37.5t18 -32.5q6 -6 16 -10v-1q0 -2 -1 -2q-3 1 -5 2q-18 4 -34 38q-15 30 -15 51v10q0 10 2 19 q18 93 53 151q69 113 198 170q71 31 124 31q16 0 40 -3q12 -2 37 -14t35 -21q17 -15 32.5 -47t15.5 -55zM1177 342q-72 29 -152 29q-8 0 -37 -7q-70 -14 -70 -67q0 -31 16 -48q12 -13 44 -26t54 -13q34 28 100 88q14 16 45 44z"></glyph><glyph glyph-name="afii10048" unicode="Ю" d="M3023 870q0 -181 -124 -370q-90 -138 -261 -299q-120 -113 -256 -169q-30 -147 -171.5 -256t-292.5 -109q-144 0 -217 107q-62 92 -62 243q0 224 163 476q-38 14 -126 26q-73 -135 -206 -268q-160 -160 -343 -224q-161 -55 -407 -55q-61 0 -145 18q-99 22 -134 52 q-60 0 -142 15q-89 17 -136 40l-27 18q-10 5 -31 19q-29 24 -48 58q-22 37 -22 71q0 86 118 133q91 37 192 37q124 142 342 193q79 18 126 19h100q-2 17 -2 26q0 42 25 47l1 -1q-4 -4 -8 -9q-10 -18 -10 -42q0 -8 5 -23q117 -3 234 -77q48 0 145 35q84 30 140 61 q119 64 246 156q61 47 186 139q61 44 125 79q19 10 57 31q71 43 100 43q4 -2 4 -6q0 4 -1 -7q-7 -8 -50 -26t-59 -33q-33 -15 -133 -149q-80 -108 -123 -177q-24 -37 -70 -111q-14 -21 -36 -63q21 -2 59 -11l60 -21q308 468 787 594q89 23 151 23q76 0 140 -28 q71 -32 107 -91q30 -50 30 -134zM2860 858q0 35 -7 56q-10 34 -43.5 54t-71.5 20q-170 0 -396 -223l-98 -98q-56 -57 -91 -104q-56 -77 -106 -180q-14 -29 -36 -102q-11 -32 -24 -97q222 16 456 157.5t351 330.5q20 33 49 109q4 9 10 27q7 25 7 50zM3000 890 q0 54 -28.5 105.5t-75 81.5t-165.5 30q-148 0 -323 -84t-324.5 -220.5t-254.5 -305.5q40 -16 66 -47q28 -34 28 -74q0 -24 -14 -47t-36 -28l-15 -2q12 4 38 22q1 0 7 12q12 23 12 41q0 67 -95 113q-158 -263 -158 -505q0 -302 269 -302q142 0 272 103.5t166 241.5 q-135 -42 -186 -42q-16 0 -53 6q-50 8 -70 15q-32 12 -59 41q-50 53 -53 116q-27 -2 -53 -2q-38 0 -89 6q-71 8 -71 21q0 6 12 6q24 0 71 -6.5t71 -6.5q28 0 59 2q0 203 159 411q69 91 202 209q65 58 120 90q190 111 288 111q71 0 111 -34q42 -37 42 -107q0 -83 -63 -189 q-121 -203 -354 -346q-228 -140 -469 -165q0 -59 33 -106q41 -59 156 -59q95 0 199 56q4 15 4 43q0 30 -14 59q-1 2 -2 5l2 2q11 -3 15 -20q10 -18 10 -63q0 -12 -1 -20q199 94 424 382q75 94 103 149q33 63 58 147q29 93 29 154zM2047 1050q-75 -30 -182 -113 q-40 -30 -120 -91q-167 -128 -265 -186q-160 -95 -299 -117q49 -61 49 -129q0 -118 -123 -213q-94 -73 -231 -116t-385 -43v-4q59 -26 153 -43q76 -13 111 -13q390 0 645 262q94 96 130 153q27 43 86 126q-107 0 -186 -40q-33 -17 -60 -50q-22 -27 -22 -54q0 -51 33 -71 q7 -3 19 -11l-4 -2q-13 6 -35 25.5t-22 56.5q0 30 25 66q32 47 121 75q75 25 144 25q68 122 189 279q148 191 229 228zM1132 566q-29 16 -87 43q-12 5 -119 23q5 -21 16 -33q16 -16 58 -27q37 -9 65 -9h42q17 0 25 3zM1205 426q0 64 -50 110h-42q-28 1 -42 1q-48 0 -95 24 q-55 28 -63 71q-12 0 -36.5 1.5t-36.5 1.5q-96 0 -196 -34t-179 -92q-59 -42 -82 -78q155 -15 201 -81q11 -15 11 -21l-1 -2l-4 2l-3 5q-18 31 -49 49q-37 22 -163 37q-44 -53 -44 -134q0 -80 41 -142q49 -74 103 -89q11 -3 69 -3q219 0 412 81q249 106 249 293zM425 55 q-133 78 -133 222q0 91 46 143q-127 0 -192 -40q-43 -27 -59.5 -53t-16.5 -60q0 -102 132 -163q106 -49 223 -49z"></glyph><glyph glyph-name="afii10049" unicode="Я" d="M1659 993q0 -62 -54 -141q-82 -121 -225 -205q-149 -88 -289 -88q-43 0 -83 9q-29 -79 -29 -148q0 -138 102 -138q17 0 38 4q28 6 68.5 27t56.5 40q39 58 77 116q63 90 94 90q12 0 12 -15q0 -29 -50 -83q-36 -37 -71 -73q-20 -23 -73 -134q-61 -128 -61 -189 q0 -33 17.5 -58t49.5 -25q69 0 133 86l29 6q-72 -102 -170 -102q-88 0 -88 106q0 91 70 220q-370 -344 -725 -344q-143 0 -255 56q-141 70 -141 199q0 145 142 232q122 75 275 75q109 0 210 -46q126 -58 126 -153q0 -100 -108 -159q-89 -49 -197 -49q-85 0 -155 29 q-94 38 -94 111q0 8 4.5 20.5t10.5 10.5q-8 -20 -8 -30q0 -65 87 -97q63 -24 141 -24q103 0 195 41q117 52 117 143q0 89 -134 138q-102 38 -209 38q-147 0 -259 -64q-135 -76 -135 -212q0 -125 146 -189q112 -49 256 -49q192 0 393 102q176 90 329 243l9 16 q-75 -63 -163 -63q-69 0 -104 46q-31 41 -31 113q0 71 28 147q-60 20 -96 69t-36 112q0 148 156 259q143 101 297 101q102 0 151 -61q73 29 127 29q96 0 96 -95zM1642 985q0 94 -87 94q-45 0 -114 -29q23 -38 23 -90q0 -82 -59 -149q-53 -60 -136 -88q-42 -14 -61 -14 q-11 0 -12 4q1 2 13 2q19 0 56 15q76 31 130 96q59 71 59 147q0 43 -20 74q-190 -90 -341 -315q-65 -97 -80 -155q27 -12 78 -12q137 0 281 83q139 80 218 198q52 77 52 139zM1429 1056q-49 55 -143 55q-150 0 -281 -96q-144 -105 -144 -249q0 -57 27 -105q29 -51 80 -73 q12 25 38 77q143 272 423 391zM1421 535q0 6 -4 6q-32 0 -96 -128q100 106 100 122z"></glyph><glyph glyph-name="afii10065" unicode="а" d="M302 99q0 -10 -69 -65q-50 -40 -86 -40q-29 0 -29 24q0 18 14 33h-1q-63 -57 -113 -57q-38 0 -38 33q0 29 28 61h-1q-15 -16 -19 -16q-2 0 -3 1v2l1 4q25 30 83.5 61.5t93.5 31.5t35 -26q0 -6 -2 -13h1q34 38 62 38q13 0 13 -3t-51 -64.5t-51 -81.5l2 -5q3 -1 7 -1 q21 0 69.5 41.5t52.5 42.5zM189 143q0 18 -19 18q-26 0 -86.5 -58t-60.5 -82q0 -12 13 -12q29 0 91 54t62 80z"></glyph><glyph glyph-name="afii10066" unicode="б" d="M690 467q-9 -21 -144 -21q-11 0 -30 2q-23 3 -31 4q-30 1 -62 1q-334 0 -334 -171q0 -70 77 -91q5 -1 13 -4q0 -4 -6 -4q-45 0 -76 35t-31 80q0 91 97 136q74 35 176 35q40 0 119.5 -6.5t119.5 -6.5q19 0 55 6t50 6q3 0 7 -1zM219 135q0 -46 -69 -96q-64 -48 -111 -48 q-49 0 -49 37t28 69v1q-25 -26 -32 -26l-1 1v2l1 4q31 33 86.5 63t95.5 30q4 0 6 -5q-1 -1 -11 -6q-33 -16 -79 -63q-51 -53 -51 -83q0 -14 14 -14q37 0 91.5 57t54.5 97q0 2 -1.5 5.5t-1.5 5.5q0 4 6 4q9 0 16 -12.5t7 -22.5z"></glyph><glyph glyph-name="afii10067" unicode="в" d="M534 542q0 -67 -309 -301q-41 -29 -101 -83q-19 -24 -58 -80l2 -3q102 97 162 97q42 0 42 -31q0 -49 -63 -99q-59 -47 -110 -47q-30 0 -30 20q0 19 52 39l70 22q35 35 35 69q0 11 -13 11q-50 0 -198 -146q-15 -14 -36 -14q-11 0 -11 7q0 23 74 115h-1q-37 -37 -45 -37 q-1 0 -2 1q1 7 31 33l38 33q19 25 57 73q92 113 180 203q144 145 202 145q32 0 32 -27zM508 539q0 19 -17 19q-41 0 -186 -168q-104 -121 -165 -206v-1q102 85 204 171q164 144 164 185zM183 65v1l-54 -20q-41 -17 -41 -28q0 -9 9 -9q41 0 86 56z"></glyph><glyph glyph-name="afii10068" unicode="г" d="M217 100q-5 -15 -48 -48q-34 -27 -60.5 -42.5t-51.5 -15.5q-30 0 -30 21q0 24 44.5 78t44.5 55q0 7 -7 7q-17 0 -63.5 -34.5t-48.5 -34.5q-1 0 -3 2q0 4 1 5q92 79 134 79q31 0 31 -22q0 -17 -39 -65t-39 -62l1 -4q4 -2 8 -2q18 0 62 34q29 25 58 49h3h3z"></glyph><glyph glyph-name="afii10069" unicode="д" d="M299 98q0 -15 -82 -71q-54 -38 -100 -65q-173 -260 -343 -347q-41 -21 -69 -21q-48 0 -48 35q0 46 87 118q63 53 176 123q71 42 143 85q24 32 63 91v1q-63 -53 -109 -53q-38 0 -38 33q0 32 28 59v1q-18 -15 -20 -15q-1 0 -2 1v2l1 4q27 31 84.5 61.5t95.5 30.5 q36 0 32 -34h1q30 34 48 34t18 -7q0 -3 -15.5 -21.5t-123.5 -164.5v-1l46 30q45 29 79 56q13 14 47 37q1 -1 1 -2zM189 143q0 18 -18 18q-26 0 -87 -57.5t-61 -82.5q0 -12 14 -12q29 0 90.5 54t61.5 80zM54 -62v1q-195 -123 -212 -135q-150 -108 -150 -172q0 -25 28 -25 q97 0 334 331z"></glyph><glyph glyph-name="afii10070" unicode="е" d="M227 98q0 -3 -9 -12q-37 -38 -82 -64q-53 -31 -98 -31q-55 0 -55 37q0 27 24 59h-1q-14 -15 -19 -15q-1 0 -2 1v2l1 4q28 31 82 61q58 31 95 31q29 0 29 -26q0 -45 -151 -93q-6 -20 -6 -27q0 -18 23 -18q31 0 73 24q29 17 63 45q29 25 30 25q3 0 3 -3zM157 149q0 9 -12 9 q-20 0 -55 -38q-27 -29 -43 -57v-1q110 35 110 87z"></glyph><glyph glyph-name="afii10072" unicode="ж" d="M474 100q0 -5 -31 -30q-25 -21 -38 -29q-67 -44 -123 -44t-56 37q0 3 2 9q-94 -42 -108 -42q-9 0 -9 4q0 7 60 70q57 60 72 71q-34 -27 -73 -33q-17 -39 -68 -77.5t-90 -38.5q-44 0 -44 36q0 19 12.5 34t30.5 15q23 0 23 -18q0 -10 -12 -21t-12 -20q0 -7 12 -7 q25 0 69.5 49.5t44.5 75.5q0 15 -25 15q-24 0 -57.5 -24.5t-34.5 -24.5t-2 1v2l1 4q19 23 52.5 40t62.5 17q41 0 41 -36q0 -7 -2 -16q6 3 61 30q50 25 53 25t3 -3q-27 -30 -64 -74q-28 -32 -54 -67q22 12 66 37q19 36 72 69.5t92 33.5q44 0 44 -32q0 -14 -11 -25t-25 -11 q-15 0 -15 14q0 6 8.5 19t8.5 20l-15 4q-39 -20 -74 -53q-42 -41 -42 -74q0 -18 24 -18q44 0 106 44l62 44h1q1 -1 1 -2z"></glyph><glyph glyph-name="afii10073" unicode="з" d="M259 98q0 -12 -132 -102q1 -7 1 -16q0 -51 -61 -129q-44 -57 -101 -107q-170 -149 -257 -149q-42 0 -42 35q0 67 174 193q41 29 252 162q1 6 1 11q0 33 -28 33q-22 0 -44 -16q-18 -14 -37 -28q-6 9 -6 7q0 3 6 12q25 21 42 30q45 23 91 45q52 29 80 60q5 5 4 9l-2 2 l-46 -18q-27 -11 -48 -11q-38 0 -48 18q-64 -66 -70 -66q-1 0 -3 1v3v2q34 38 68 69v4q0 43 43 43q17 0 17 -10q-17 -12 -17 -23q0 -13 29 -13q23 0 57 10t36 10q10 0 10 -7t-8 -18q-26 -35 -78 -64l-92 -44v-1q14 4 19 4q42 0 55 -34q30 20 90 62q9 9 30 26q9 6 13 6h1z M90 -26q-52 -33 -155 -100q-244 -156 -244 -247q0 -21 23 -21q74 0 216 148q135 139 160 220z"></glyph><glyph glyph-name="afii10074" unicode="и" d="M333 98q0 -12 -68 -64q-53 -40 -86 -40q-31 0 -31 24q0 30 55 85l-2 2q-134 -111 -178 -111q-33 0 -33 24q0 39 90 125v1q-16 -11 -48 -36q-12 -11 -36 -31q-6 -4 -10 -4l-1 2q17 27 65 59q52 35 82 35q10 0 12 -3q-1 -2 -55 -71q-45 -57 -45 -71q1 -1 3 -4t7 -3 q24 0 199 143q13 11 29 11q21 0 21 -5t-50.5 -65t-50.5 -75q0 -4 2 -6.5t6 -2.5q34 0 110 76l13 6v-1z"></glyph><glyph glyph-name="afii10075" unicode="й" d="M289 266q-2 -17 -35 -35.5t-52 -18.5q-10 0 -21.5 6.5t-11.5 15.5v25q5 11 14 11q16 0 16 -13q0 -14 -18 -24q5 -12 22 -12q19 0 51.5 23l32.5 23q1 0 2 -1zM333 99q-2 -15 -68 -65q-53 -40 -86 -40q-31 0 -31 24q0 30 55 85l-2 2q-134 -111 -178 -111q-33 0 -33 24 q0 39 90 125v1q-16 -11 -48 -36q-12 -11 -36 -31q-6 -4 -10 -4q-1 1 -1 3q0 13 59 53t87 40q11 0 13 -3q-1 -2 -55 -71q-45 -57 -45 -71q1 -1 3 -4t6 -3q25 0 200 143q13 11 29 11q21 0 21 -5q0 -6 -50.5 -65t-50.5 -75q0 -4 2 -6.5t6 -2.5q34 0 110 76z"></glyph><glyph glyph-name="afii10076" unicode="к" d="M325 98q0 -5 -31 -33q-25 -22 -38 -32q-52 -39 -86 -39q-22 0 -30 16q-4 10 -4 35q0 37 -16 31q10 9 30 9q27 0 33.5 -33.5t18.5 -33.5q22 0 69.5 40t53.5 41v-1zM283 143q0 -30 -31 -30q-23 0 -23 10q0 2 3.5 9.5t3.5 11.5q0 14 -15 14q-37 0 -125.5 -81t-109.5 -81 q-12 0 -16 3v4q0 26 71 114v1q-37 -37 -45 -37q-2 0 -2 1q2 10 50.5 50t60.5 40q19 0 19 -12v-2q-26 -37 -80 -110l2 -1q66 59 90 77q63 47 106 47q41 0 41 -28z"></glyph><glyph glyph-name="afii10077" unicode="л" d="M295 97q-3 -14 -65 -62q-50 -39 -84 -39q-28 0 -28 25q0 18 35 65q-50 -45 -67 -57q-45 -33 -75 -33q-29 0 -29 23q0 6 1 12h1q8 26 36 26q17 0 17 -10q0 -3 -2 -10t-2 -11q0 -1 2 -7q3 -1 6 -1q19 0 95 64q47 41 95 82q8 6 32 6q8 0 8 -4q0 -2 -51 -63t-51 -77 q3 -9 7 -9q17 0 61 38.5t58 41.5z"></glyph><glyph glyph-name="afii10078" unicode="м" d="M451 98q0 -12 -69 -64q-53 -40 -86 -40q-31 0 -31 24q0 30 55 85l-2 2q-125 -109 -172 -109q-28 0 -28 25q0 14 13 33l22 32q-33 -28 -67 -57q-44 -33 -75 -33q-29 0 -29 23q0 6 1 12h1q8 26 36 26q17 0 17 -10q0 -3 -2 -10t-2 -11q0 -1 2 -7q2 -1 6 -1q18 0 100 69 q45 38 89 77q7 6 32 6q5 0 8 -3q-1 -6 -51 -65t-50 -76q3 -9 7 -9q20 0 104 69q102 84 107 87t17 3q21 0 21 -5q0 -3 -53 -65.5t-53 -79.5q0 -4 2 -6.5t6 -2.5q17 0 59 32q31 24 51 44l13 6z"></glyph><glyph glyph-name="afii10079" unicode="н" d="M325 92q-20 -43 -68 -73q-40 -26 -66 -26q-34 0 -34 29q0 22 20 49q-31 -22 -66 -22q-26 0 -37 17q-14 -22 -46 -62q-18 -8 -34 -8q-22 0 -22 8q0 14 45 69q38 48 60 69v1q-66 -54 -74 -54q-2 0 -2 2q9 20 54 47.5t67 27.5q19 0 19 -5q0 -4 -47 -65q8 -5 8 -13 q0 -5 -4.5 -10.5t-4.5 -7.5q0 -9 13 -9q39 0 73 28q2 1 52 53q28 29 50 29q21 0 21 -6q0 -2 -45.5 -58.5t-45.5 -71.5q0 -7 3 -10.5t7 -3.5q18 0 98 77h3q2 0 3 -1z"></glyph><glyph glyph-name="afii10080" unicode="о" d="M262 97q0 -12 -38 -36t-53 -24q-13 0 -18 3q-70 -49 -114 -49q-49 0 -49 37t28 69v1q-26 -26 -32 -26q-1 0 -1 1v2l1 4q31 33 84 62q57 30 98 31l6 -5q-1 -1 -11 -6q-33 -16 -79 -63q-51 -52 -51 -83q0 -14 14 -14q39 0 93 61q13 52 50 68q3 7 3 25q0 2 -1.5 5.5 t-1.5 5.5q0 4 6 4q9 0 15.5 -12.5t6.5 -22.5q0 -35 -57 -88q3 -1 6 -1q23 0 52 24q33 27 42 29q1 -1 1 -2z"></glyph><glyph glyph-name="afii10081" unicode="п" d="M367 98q0 -4 -32 -31q-27 -24 -39 -33q-54 -40 -90 -40q-30 0 -30 20q0 26 44.5 78t44.5 57t-7 5q-30 0 -125.5 -79t-112.5 -79t-17 6q0 14 48 77.5t49 64.5q-2 6 -6 6q-17 0 -61 -39t-45 -39q-4 0 -4 4q0 11 55.5 53t79.5 42q25 0 25 -23q0 -17 -64 -100l3 -1 q147 124 195 124q31 0 31 -22q0 -18 -39 -66t-39 -61l1 -4q3 -1 7 -1q22 0 72 41.5t52 41.5l3 -1.5z"></glyph><glyph glyph-name="afii10082" unicode="р" d="M340 99q-2 -15 -69 -65q-53 -40 -90 -40q-33 0 -33 23q0 26 45.5 75t45.5 56q0 5 -8 5q-52 0 -202 -186q-60 -74 -191 -256l-38 -56q-27 -37 -41 -48.5t-24 -11.5q-23 0 -23 25t33 74q198 289 356 479h-1q-106 -99 -115 -99v0q5 12 173 164q22 20 39 20q15 0 15 -4 q0 -2 -16 -21q-55 -64 -184 -234q-118 -154 -195 -267q-64 -93 -64 -104v-3q1 -1 2 -1q11 0 111 142q126 179 200 263q123 142 189 142q31 0 31 -20t-41.5 -65.5t-41.5 -59.5q0 -9 10 -9q22 0 72 40.5t55 41.5z"></glyph><glyph glyph-name="afii10083" unicode="с" d="M221 92q0 -13 -64 -57t-118 -44q-53 0 -53 36q0 31 29 67h-1q-9 -10 -29 -21v2q0 2 1 4q23 28 82 60t92 32q35 0 35 -28q0 -15 -10.5 -29.5t-24.5 -14.5t-14 14q0 6 8 20t8 21t-10 7q-25 0 -70 -53.5t-45 -81.5q0 -19 23 -19q41 0 100.5 43l59.5 43h1v-1z"></glyph><glyph glyph-name="afii10084" unicode="т" d="M525 98q0 -12 -69 -64q-54 -40 -90 -40q-29 0 -29 23t44 75t44 57t-7 5q-30 0 -124 -79t-114 -79q-16 0 -16 6q0 20 50.5 81.5t50.5 64.5q0 6 -8 6q-27 0 -124 -79t-113 -79q-17 0 -17 6q0 14 48 77.5t49 64.5q-2 6 -6 6q-17 0 -61 -39t-45 -39q-4 0 -4 4q0 6 65 61 q40 34 70 34q25 0 25 -23q0 -17 -64 -100l3 -1q147 124 194 124q32 0 32 -23q0 -17 -27 -51q-21 -24 -42 -49l3 -1q147 124 195 124q31 0 31 -22q0 -17 -39 -65.5t-39 -61.5l1 -4q3 -1 7 -1q21 0 64 35q54 43 62 47v-1z"></glyph><glyph glyph-name="afii10085" unicode="у" d="M328 97q0 -3 -10 -12q-77 -73 -122 -126q-83 -97 -183 -241q-33 -48 -41 -58q-28 -38 -43.5 -51.5t-29.5 -13.5q-19 0 -19 22q0 37 130 216l200 276l-3 1q-146 -117 -188 -117q-26 0 -26 24q0 45 87 126v1q-16 -11 -48 -36q-12 -11 -36 -31q-6 -4 -10 -4l-1 2q0 10 75 67 q36 27 72 27q7 0 12 -3v-2q0 -1 -50 -64t-50 -77q0 -6 6 -6q21 0 101 62q51 40 101 81q14 11 29 11q20 0 20 -5l-189.5 -256.5t-189.5 -281.5q0 -1 1 -2.5t2 -1.5q8 0 25 23q84 117 169 234q101 133 195 212q8 7 11 7t3 -3z"></glyph><glyph glyph-name="afii10086" unicode="ф" d="M357 128q0 -56 -70 -98q-62 -37 -122 -37q2 1 11 5q37 16 83 61q52 51 52 83q0 13 -14 13q-25 0 -59 -25q-28 -21 -46 -46q-79 -109 -243 -324q-26 -35 -83 -102q-42 -45 -84 -44h-3q125 150 200 250q45 62 135 187q-71 -45 -114 -45q-39 0 -39 33q0 51 74 98 q68 42 122 42q33 0 33 -26q0 -5 -1 -10q12 11 25.5 23.5t26.5 12.5q18 0 18 -8q0 -4 -13 -17q35 11 61 11q50 0 50 -37zM181 156q0 11 -13 11q-33 0 -97 -54t-64 -81q0 -10 13 -10q32 0 96.5 52t64.5 82z"></glyph><glyph glyph-name="afii10087" unicode="х" d="M293 92q0 -7 -28 -30q-43 -35 -58 -44q-37 -24 -68 -24q-46 0 -46 39q0 7 2 16h-1q-34 -55 -74 -55q-38 0 -38 32q0 18 11 32t28 14q21 0 21 -17q1 -1 1 -2q0 -5 -11.5 -16t-11.5 -20q0 -7 11 -7q21 0 63 54t42 77q0 16 -18 16q-25 0 -77.5 -42.5t-54.5 -42.5q-1 0 -1 1 v2l1 4q48 44 68 59q45 33 79 33q44 0 44 -38q0 -7 -2 -16h1q48 54 79 54q29 0 29 -24q0 -38 -33 -38q-16 0 -16 11q0 10 11 24q1 7 -8 7q-21 0 -62 -50.5t-41 -73.5q0 -18 21 -18q32 0 83 42t53 42q1 0 1 -1z"></glyph><glyph glyph-name="afii10088" unicode="ц" d="M303 166q0 -6 -50.5 -65t-50.5 -75q0 -4 2.5 -6.5t5.5 -2.5q14 0 44.5 21.5t32.5 21.5l1 -3l-2 -5l-66 -107q-17 -28 -29 -28t-19.5 12.5t-7.5 24.5q0 27 16 26h2q11 -34 20 -34q5 0 30 39q29 45 33 49q-56 -40 -86 -40q-31 0 -31 24q0 30 55 85l-2 2 q-134 -111 -178 -111q-33 0 -33 24q0 39 90 125v1q-16 -11 -48 -36q-12 -11 -36 -31q-6 -4 -10 -4q-1 1 -1 3q0 12 59 52.5t87 40.5q11 0 13 -3q-2 -3 -56 -72q-44 -56 -44 -70q1 -1 3 -4t6 -3q27 0 200 143q13 11 29 11q21 0 21 -5z"></glyph><glyph glyph-name="afii10089" unicode="ч" d="M219 98q0 -13 -69 -64q-54 -40 -89 -40q-31 0 -31 24q0 30 57 80.5t57 51.5q0 7 -26 7q-4 0 -12 -1t-12 -1q-2 0 -14 3q-6 -9 -47.5 -47t-45.5 -38q-3 0 -3 3q0 2 8 9q17 14 80 77q-7 4 -7 14q0 15 14.5 25t30.5 10q14 0 18 -10q-8 -6 -15 -12q-10 -9 -10 -16t34 -9.5 t34 -19.5q0 -9 -42 -55.5t-42 -64.5q0 -3 3 -6h5q18 -1 70 41t51 42q3 0 3 -3z"></glyph><glyph glyph-name="afii10090" unicode="ш" d="M473 91q0 -7 -37.5 -42t-48.5 -41q-24 -14 -48 -14q-31 0 -31 24q0 30 55 85l-2 2q-127 -111 -182 -111q-31 0 -31 24q0 30 55 85l-2 2q-127 -111 -178 -111q-33 0 -33 25q0 38 90 124v1q-5 -3 -50 -39q-41 -32 -44 -32l-1 3q0 5 37 36q31 25 47 36q31 21 62 21 q11 0 13 -3q-2 -3 -56 -73q-44 -56 -44 -68q1 -1 3 -4.5t7 -3.5q24 0 102 64q95 78 103 83t32 5q11 0 13 -3q-2 -3 -56 -73q-44 -56 -44 -68q1 -1 3 -4.5t7 -3.5q24 0 117 77t111 77q21 0 21 -5t-50.5 -65t-50.5 -75q0 -4 2 -6.5t6 -2.5q14 0 52 34q41 38 50 42q1 -1 1 -2z "></glyph><glyph glyph-name="afii10091" unicode="щ" d="M463 166q0 -5 -50.5 -65t-50.5 -75q-1 -3 2 -8q3 -1 6 -1q14 0 44.5 21.5t32.5 21.5l1 -3l-2 -5l-66 -107q-17 -28 -29 -28t-19.5 12.5t-7.5 24.5q0 27 16 26h2q11 -34 20 -34q5 0 30 39q29 45 33 49q-56 -40 -86 -40q-31 0 -31 24q0 30 55 85l-2 2q-127 -111 -182 -111 q-31 0 -31 24q0 30 55 85l-2 2q-127 -111 -178 -111q-33 0 -33 25q0 38 90 124v1q-5 -3 -50 -39q-41 -32 -44 -32l-1 3q0 5 37 36q31 25 47 36q31 21 62 21q11 0 13 -3q-2 -3 -56 -73q-44 -56 -44 -68q1 -1 3 -4.5t7 -3.5q24 0 102 64q95 78 103 83t32 5q11 0 13 -3 q-2 -3 -56 -73q-44 -56 -44 -68q1 -1 3 -4.5t7 -3.5q24 0 117 77t111 77q21 0 21 -5z"></glyph><glyph glyph-name="afii10092" unicode="ъ" d="M245 97q0 -7 -30 -35q-20 -16 -65 -40h-1q-43 -28 -76 -28t-33 24q0 23 41 74q30 38 61 66q-55 -23 -108 -23q-41 0 -41 21q0 15 14 25.5t30 10.5q2 0 2 -1q0 -2 -3.5 -7t-3.5 -8q0 -18 43 -18q18 0 54 6.5t54 6.5q11 0 13 -3q-28 -36 -57 -72q-45 -58 -45 -71 q1 -1 3.5 -4.5t7.5 -3.5q13 0 39 24q7 31 33 38v21l1 1q1 1 3 1q15 0 15 -21q0 -15 -22 -37q9 6 30 22q10 9 19 18q16 15 21 15q1 -1 1 -2z"></glyph><glyph glyph-name="afii10093" unicode="ы" d="M326 93q0 -1 -9 -12q-26 -32 -63 -58q-42 -30 -70 -30q-29 0 -29 23q0 16 12 36q-32 -29 -53 -29q-4 0 -11 2q-55 -31 -80 -31q-33 0 -33 24q0 31 57 95l-5 -1q-54 -39 -56 -39l-1 3q0 5 88 65q5 4 12 10l6 3q24 17 37 17q16 0 18 -3q-28 -36 -57 -72q-45 -57 -45 -71 q1 -1 3.5 -4.5t7.5 -3.5q13 0 39 24q7 31 33 38v21l1 1q1 1 3 1q15 0 15 -21q0 -19 -38 -51l3 -1q33 0 92.5 71t95.5 71q7 0 12 -2q-3 -5 -57 -73q-45 -57 -45 -73l2.5 -4t5.5 -4q12 0 58 40.5t48 40.5l2 -1q1 0 1 -2z"></glyph><glyph glyph-name="afii10094" unicode="ь" d="M189 98q0 -7 -30 -31q-21 -15 -66 -46l-8 -2q-46 -25 -69 -25q-34 0 -34 24q0 11 15.5 41t32.5 46q2 3 5 7q-54 -39 -56 -39l-1 3q0 5 88 65q4 4 12 10q26 20 43 20q15 0 18 -3q-29 -36 -57 -72q-45 -57 -45 -71q0 -1 3 -4.5t8 -3.5q13 0 39 24q7 31 33 38v21l1 1 q1 1 2 1q16 0 16 -21q0 -15 -22 -37q10 9 32 27q35 29 39 29q1 -1 1 -2z"></glyph><glyph glyph-name="afii10095" unicode="э" d="M195 96q5 -3 -3 -6l-53 -34q-7 -6 -30 -26q-52 -37 -89 -37q-47 0 -47 38q0 20 13 36.5t32 16.5q24 0 24 -19q0 -9 -12 -21t-12 -21q0 -8 13 -8q32 0 86 68q-29 -9 -50 -9q-24 0 -24 14q0 20 26 20v-1q-4 -6 -4 -9q0 -10 30 -10q11 0 27 2q27 34 27 54q0 18 -24 18 t-64 -28l-40 -28q-2 0 -3 1t-1 2q0 2 2 5q16 22 57.5 42.5t69.5 20.5q42 0 42 -38q0 -31 -31 -62l19 9q5 4 19 10z"></glyph><glyph glyph-name="afii10096" unicode="ю" d="M385 94q-5 -15 -33.5 -37.5t-44.5 -22.5q-12 0 -16 3q-71 -42 -120 -42q-51 0 -51 35q0 24 18 51q-44 -21 -54 -21q-13 0 -20 6q-15 -21 -30 -41q-24 -31 -34 -31q-16 0 -16 17q0 26 55 99l-16 -12q-19 -11 -21 -6l61 41q1 2 11 13q32 34 62 34q13 0 15 -3v-2l-34 -42 q-37 -46 -40 -50q3 -7 15 -7q16 0 85.5 46.5t123.5 46.5h5h6q-3 -2 -11 -6q-31 -15 -81 -63q-55 -53 -55 -81q0 -13 15 -13q41 0 97 57q2 13 14.5 34t22.5 27q5 2 15 8q3 7 3 24q0 2 -1.5 5t-1.5 5q0 3 3 3q11 0 19 -11t8 -23q0 -39 -60 -91q4 -1 8 -1q20 0 46.5 26.5 t29.5 26.5z"></glyph><glyph glyph-name="afii10097" unicode="я" d="M324 99q0 -6 -68 -59q-60 -47 -100 -47q-33 0 -33 26q0 21 16 46q-30 -23 -61 -45q-39 -26 -69 -26q-35 0 -35 30q0 43 45 43q21 0 21 -12q0 -4 -3 -12.5t-3 -12.5q0 -10 9 -10q27 0 89 54q-8 -2 -14 -2q-18 0 -30.5 15.5t-12.5 33.5q0 28 34 49q30 19 59 19q48 0 57 -28 q18 14 49 14q6 0 9 -2l1 -1q0 -5 -50.5 -66t-50.5 -79q0 -9 9 -9q24 0 67 37q48 41 64 46q1 -1 1 -2zM194 161q0 14 -15 14q-23 0 -51 -25t-28 -49q0 -20 15 -20q21 0 50 30t29 50z"></glyph><glyph glyph-name="afii10046" unicode="Ь" d="M2393 1048q0 -15 -38 -30q-27 -9 -77 -33q-82 -49 -259 -274q-118 -159 -237 -317q-197 -261 -411 -384q-240 -138 -556 -138q-193 0 -308 70q-138 6 -239 48q-144 59 -144 172q0 105 124 160q94 42 215 42q79 92 230 155q143 61 271 65q35 1 100 0q1 34 21 62 q9 12 11 12h3q-8 -16 -16.5 -32t-8.5 -43q154 -12 230 -79q132 17 276 84q107 50 253 146q120 80 241 160q79 50 145 85q23 10 66 32q24 15 48 29q31 17 52 17q8 0 8 -9zM2273 995v1q-84 -39 -201 -118l-234 -158q-143 -96 -250 -149q-140 -70 -264 -92q35 -44 35 -104 q0 -160 -193 -284.5t-480 -145.5q-41 -3 -129 -3v-1q110 -56 274 -56q244 0 463 121q205 112 362 315q87 114 175 227q103 132 183 221q147 163 259 226zM1277 501q-68 57 -202 69q8 -37 55 -56q38 -16 82 -16q45 0 65 3zM1334 376q0 58 -35 99q-35 -5 -89 -5q-56 0 -94 23 q-45 27 -51 78q-35 3 -60 3q-138 0 -275 -54q-146 -58 -230 -157q134 -6 188 -74q6 -8 14 -24l-3 -5q-1 1 -11 16q-47 70 -194 77q-68 -82 -68 -191q0 -134 115 -207q38 -2 62 -2h10q310 2 529 140q192 121 192 283zM493 -44v1q-109 76 -109 205q0 107 71 192 q-114 -2 -193 -41q-104 -51 -104 -152q0 -98 125 -155q91 -41 210 -50zM2131 276q0 -160 -204 -271q88 -47 88 -107q0 -17 -7 -17q-4 0 -4 11q0 62 -88 107q-124 -67 -237 -67q-95 0 -95 34q0 20 42 41q49 24 144 24q67 0 124 -24q77 64 125 143q55 92 55 180q0 60 -41.5 98 t-102.5 38q-6 0 -18 -2t-18 -2l-5 1l-4 4q9 10 50 10q80 0 138 -60t58 -141zM1883 1q-33 16 -107 16q-48 0 -89 -7q-67 -13 -67 -41q0 -27 63 -27q100 0 200 59z"></glyph><glyph glyph-name="afii10044" unicode="Ъ" d="M2219 979q23 10 66 32q24 15 48 29q31 17 52 17q8 0 8 -9q0 -15 -38 -30q-27 -9 -77 -33q-82 -49 -259 -274q-118 -159 -237 -317q-197 -261 -411 -384q-240 -138 -556 -138q-193 0 -308 70q-138 6 -239 48q-144 59 -144 172q0 105 124 160q94 42 215 42q79 92 230 155 q143 61 271 65q35 1 100 0l10 -1q154 -12 248 -100q37 -48 37 -108q0 -160 -193 -284.5t-480 -145.5q-41 -3 -129 -3v-1q110 -56 274 -56q244 0 463 121q205 112 362 315q87 114 175 227q103 132 183 221q147 163 259 226v1q-27 -13 -58 -30q-100 -43 -198 -49q-22 -2 -35 0 q-151 5 -298 77q-96 46 -152 61q-76 22 -162 17q-135 -8 -233 -68q-123 -75 -115 -197q5 -79 80 -120q64 -35 148 -29q90 5 164 44q94 50 89 129q-3 37 -30.5 57t-65.5 18q-63 -4 -98 -39q-7 -9 -20 -25q-1 3 -1 5q0 5 13 23q32 45 106 50q48 3 82 -17q39 -22 42 -67 q6 -84 -101 -139q-84 -43 -180 -49q-90 -6 -156 29q-79 42 -85 126q-8 135 131 218q112 68 260 77q167 11 328 -65q60 -30 119 -60q70 -33 149 -43q23 2 12 0q9 1 13 1q92 6 198 48zM1298 479q-89 79 -223 91q-45 4 -70 4q-138 0 -275 -54q-146 -58 -230 -157 q134 -6 188 -74q6 -8 14 -24l-3 -5q-1 1 -11 16q-47 70 -194 77q-68 -82 -68 -191q0 -134 115 -207q38 -2 62 -2h10q310 2 529 140q192 121 192 283q0 58 -36 103zM493 -44v1q-109 76 -109 205q0 107 71 192q-114 -2 -193 -41q-104 -51 -104 -152q0 -98 125 -155 q91 -41 210 -50zM2131 276q0 -160 -204 -271q88 -47 88 -107q0 -17 -7 -17q-4 0 -4 11q0 62 -88 107q-124 -67 -237 -67q-95 0 -95 34q0 20 42 41q49 24 144 24q67 0 124 -24q77 64 125 143q55 92 55 180q0 60 -41.5 98t-102.5 38q-6 0 -18 -2t-18 -2l-5 1l-4 4q9 10 50 10 q80 0 138 -60t58 -141zM1883 1q-33 16 -107 16q-48 0 -89 -7q-67 -13 -67 -41q0 -27 63 -27q100 0 200 59z"></glyph><glyph glyph-name="afii10045" unicode="Ы" d="M2393 1048q0 -15 -38 -30q-27 -9 -77 -33q-82 -49 -259 -274q-118 -159 -237 -317q-197 -261 -411 -384q-240 -138 -556 -138q-193 0 -308 70q-138 6 -239 48q-144 59 -144 172q0 105 124 160q94 42 215 42q79 92 230 155q143 61 271 65q35 1 100 0q1 34 21 62 q9 12 11 12h3q-8 -16 -16.5 -32t-8.5 -43q154 -12 230 -79q132 17 276 84q107 50 253 146q120 80 241 160q79 50 145 85q23 10 66 32q24 15 48 29q31 17 52 17q8 0 8 -9zM1334 376q0 58 -35 99q-35 -5 -89 -5q-56 0 -94 23q-45 27 -51 78q-35 3 -60 3q-138 0 -275 -54 q-146 -58 -230 -157q134 -6 188 -74q6 -8 14 -24l-3 -5q-1 1 -11 16q-47 70 -194 77q-68 -82 -68 -191q0 -134 115 -207q38 -2 62 -2h10q310 2 529 140q192 121 192 283zM2273 995v1q-84 -39 -201 -118l-234 -158q-143 -96 -250 -149q-140 -70 -264 -92q35 -44 35 -104 q0 -160 -193 -284.5t-480 -145.5q-41 -3 -129 -3v-1q110 -56 274 -56q244 0 463 121q205 112 362 315q87 114 175 227q103 132 183 221q147 163 259 226zM3466 934q0 -98 -110 -162q-95 -55 -201 -55q-34 0 -71 9q-53 13 -56 36l2 2q7 -6 22 -17q27 -19 98 -19q97 0 187 53 q104 62 104 153q0 50 -42 76q-34 22 -88 22q-118 0 -260 -112q-170 -134 -353 -419q-108 -168 -189 -264q-134 -157 -249 -199v-1q78 28 126 28q59 0 61 -38q28 14 107 76h4l1 -3q-3 -10 -56 -51q-45 -35 -67 -49q-35 -22 -66 -22q27 23 27 44q0 25 -48 25q-50 0 -107 -27.5 t-59 -27.5q-10 0 -10 9q0 6 68 33q77 30 181 168l70 100q-28 24 -76 41q-59 20 -155 25q-78 -2 -145 -15q15 -36 15 -77q0 -160 -204 -271q88 -47 88 -107q0 -17 -7 -17q-4 0 -4 11q0 62 -88 107q-65 -35 -128 -52q65 -105 224 -105q50 0 83 18q3 2 9 5q1 -1 1 -2 q0 -13 -43 -23q-33 -7 -53 -7q-168 0 -239 110q-47 -11 -91 -11q-95 0 -95 34q0 20 42 41q38 19 106 23q-2 11 -2 21q0 146 175 245q72 40 166 62q-7 41 -39 70q-41 38 -102 38q-6 0 -18 -2t-18 -2l-5 1l-4 4q9 10 50 10q80 0 138 -60q23 -24 37 -51q74 13 160 16 q101 -8 159 -24q49 -18 72 -43q92 130 183 260q158 217 307 334q166 131 319 131q62 0 103 -22q53 -27 53 -84zM493 -44v1q-109 76 -109 205q0 107 71 192q-114 -2 -193 -41q-104 -51 -104 -152q0 -98 125 -155q91 -41 210 -50zM1770 31q67 0 124 -24q77 64 125 143 q55 92 55 180q0 7 -1 14q-85 -20 -149 -59q-163 -99 -163 -240v-14h9zM1687 10q-67 -13 -67 -41q0 -27 63 -27q41 0 81 10q-20 37 -28 64q-26 -2 -49 -6zM1277 501q-68 57 -202 69q8 -37 55 -56q38 -16 82 -16q45 0 65 3zM1883 1q-33 16 -107 16h-12q4 -23 16 -55q1 -2 2 -5 q51 15 101 44z"></glyph></font>
</defs>
</svg>
